Marvel's Avengers Deluxe Edition (супер цена) 159р. Внимание количество ограничено!!!

2 сезон

iTunes

iTunes

1

iTunes

iTunes

iTunes

WEBRip

iTunes

30
pack

Новость дня

ВАЖНО

!!Акция!!

Alien_RageХит недели

RePack

Horizon Zero Dawn

ИГРА 18+

pack

RePack

jed

!!Акция!!

Alien_Rage

RePack

fifa19

RePack

Assassins Creed: Odyssey

RePack

NEED FOR SPEED™ PAYBACK

4 сезон

9 сезон

Бесстыжие 9 сезон

Все сериалы

все сериалы на PB.wtf

RePack

FAR CRY 5
  

Обмен принцессами / L'échange des princesses (Марк Дюген) [2017, драма, история, BDRip 720p] MVO ["Синема УС"] pb.wtf

Обмен принцессами через торрент pb.wtf

Размер: 4.84 GB | Добавлен: 1 год 9 мес. назад | Торрент скачан:43 раза
Скачать  

18-12-2018 12:05 Обмен принцессами Скачать торрент  

Обмен принцессами / L'échange des princessesГод выпуска: 2017
Страна: Франция, Бельгия
Жанр: драма, история
Продолжительность: 01:43:18
Перевод: Любительский (многоголосый) | "Синема УС"
Субтитры: отсутствуют

Режиссер: Марк Дюген

rating

В ролях:

Ламбер Вильсон, Оливье Гурме, Анамария Вартоломей, Катрин Муше, Кейси Моттет Кляйн, Игорь Ван Дессель, Жюлиан Лепоро, Патрик Декам, Томас Мустин, Гвендолин Гурвенек, Дидье Совегран, Винсент Лондез, Йонас Вертц, Ана Родригес, Педро Кабанас, Alice D'Hauwe, Тибо Нив, Максанс Дюген, Ян Лериш, Кристоф Ламберт, Андреа Ферреоль, Майя Санса

Описание:

1721 год. У регента Франции, Филиппа Орлеанского, возникает смелая идея. Его подопечный, 11-летний Людовик XV, скоро станет королём. Обмен принцессами укрепил бы хрупкий мир с Испанией, многолетние войны с которой обескровили оба королевства. Регент выдаёт свою 12-летнюю дочь за наследника престола Испании, а Людовик XV должен жениться на испанской инфанте, 4-летней Анне Марии Виктории. Но поспешный вход в свет молодых принцесс, принесённых в жертву политике, станет причиной их безрассудства...

Качество: BDRip 720p
Формат: MKV

Видео: h.264,6 261 kb/s, 1280x536
Аудио#1: Русский (AC3, 2 ch, 448 Кбит/с)
скриншот  скриншот  скриншот  

Общее
Уникальный идентификатор : 219125131038132948981344823445265895654 (0xA4D9F713A37D45119741A747C400D0E6)
Полное имя : D:\L.Echange.des.Princesses.2017.P.BDRip.72Op_KOSHARA.mkv
Формат : Matroska
Версия формата : Version 2
Размер файла : 4,84 Гбайт
Продолжительность : 1 ч. 43 м.
Режим общего битрейта : Переменный
Общий поток : 6711 Кбит/сек
Дата кодирования : UTC 2018-12-18 09:05:54
Программа кодирования : mkvmerge v8.3.0 ('Over the Horizon') 64bit
Библиотека кодирования : libebml v1.3.1 + libmatroska v1.4.2

Видео
Идентификатор : 1
Формат : AVC
Формат/Информация : Advanced Video Codec
Профиль формата : High@L4.1
Параметр CABAC формата : Да
Параметр RefFrames формата : 4 кадра
Идентификатор кодека : V_MPEG4/ISO/AVC
Продолжительность : 1 ч. 43 м.
Вид битрейта : Переменный
Битрейт : 6261 Кбит/сек
Максимальный битрейт : 7200 Кбит/сек
Ширина : 1280 пикселей
Высота : 536 пикселей
Соотношение сторон : 2,40:1
Режим частоты кадров : Постоянный
Частота кадров : 23,976 (24000/1001) кадра/сек
Стандарт вещания : Component
Цветовое пространство : YUV
Субдискретизация насыщенности : 4:2:0
Битовая глубина : 8 бит
Тип развёртки : Прогрессивная
Бит/(Пиксели*Кадры) : 0.373
Размер потока : 4,42 Гбайт (91%)
Default : Да
Forced : Нет
Цветовой диапазон : Limited
Основные цвета : BT.709
Характеристики трансфера : BT.709
Коэффициенты матрицы : BT.709

Аудио
Идентификатор : 2
Формат : AC-3
Формат/Информация : Audio Coding 3
Расширение режима : CM (complete main)
Параметр Endianness формата : Big
Идентификатор кодека : A_AC3
Продолжительность : 1 ч. 43 м.
Вид битрейта : Постоянный
Битрейт : 448 Кбит/сек
Каналы : 2 канала
Расположение каналов : Front: L R
Частота : 48,0 КГц
Частота кадров : 31,250 кадров/сек (1536 spf)
Метод сжатия : С потерями
Размер потока : 331 Мбайт (7%)
Default : Да
Forced : Нет

pb.wtf



Скачать Обмен принцессами через торрент https://a.radikal.ru/a05/1812/f8/617888102a27.jpg Скачать фильм Обмен принцессами через торрент бесплантно в хорошем качестве Описание: 1721 год. У регента Франции, Филиппа Орлеанского, возникает смелая идея. Его подопечный, 11-летний Людовик XV, скоро станет ... 10 10 2
Торрент: Зарегистрирован [2018-12-18 12:05] · скачан: 43 раз
Статус: # сомнительно
Размер: 4.84 GB
Как cкачать? Как скачать Обмен принцессами через торрент | qTorrent

28-11-2019 20:33  

Отключить всю рекламу на сайте

    Дорогой пользователь! Огромная просьба, поблагодарите релизера, оцените раздачу и оставьте свои комментарий, если Вы скачали Обмен принцессами через торрент бесплатно! Внесите свою лепту в развитие PiratBit!
    Комментировать посты могут только пользователи прошедшие не сложную регистрацию
    Показать сообщения:    

    Обмен принцессами через торрент
    Скачать бесплатно Обмен принцессами
    Обмен принцессами скачать торрент
    Обмен принцессами смотреть онлайн
    Cкачать фильм Обмен принцессами бесплатно
    Обмен принцессами скачать торрент в хорошем качестве
    Обмен принцессами смотреть онлайн бесплатно в хорошем качестве


    Вы не можете начинать темы
    Вы не можете отвечать на сообщения
    Вы не можете редактировать свои сообщения
    Вы не можете удалять свои сообщения
    Вы не можете голосовать в опросах
    Вы не можете прикреплять файлы к сообщениям
    Вы можете скачивать файлы