Ссылка на приватное зеркало нашего сайта всего за 1$. Внимание количество ограничено!!!

2 сезон

iTunes

iTunes

1

iTunes

iTunes

iTunes

WEBRip

iTunes

30
pack

Вам бонус

ВАЖНО

!!Акция!!

Alien_RageХит недели

RePack

Horizon Zero Dawn

ИГРА 18+

pack

RePack

jed

!!Акция!!

Alien_Rage

RePack

fifa19

RePack

Assassins Creed: Odyssey

RePack

NEED FOR SPEED™ PAYBACK

4 сезон

9 сезон

Бесстыжие 9 сезон

Все сериалы

все сериалы на PB.wtf

RePack

FAR CRY 5
  

Сабрина / Sabrina (Роки Сорайя) [2018, ужасы, триллер, WEB-DL 720p] MVO [@MUZOBOZ@] pb.wtf

Сабрина через торрент pb.wtf

Размер: 4.25 GB | Добавлен: 1 год 9 мес. назад | Торрент скачан:20 раз
Скачать  

18-12-2018 15:17 Сабрина Скачать торрент  

Сабрина / SabrinaГод выпуска: 2018
Страна: Индонезия
Жанр: ужасы, триллер
Продолжительность: 01:55:06
Перевод: Любительский (многоголосый) | @MUZOBOZ@
Субтитры: отсутствуют

Режиссер: Роки Сорайя

rating

В ролях:

Луна Майя, Кристиан Сугионо, Сара Виджаянто, Джереми Томас, Ризки Ханггоно, Ришель Джорджетт Скорницки, Асри Хандаяни, Демьян Адитья, Сахил Шах

Описание:

Год назад семейная пара потеряла в аварии маленькую дочь. Во время происшествия у той была с собой любимая кукла по имени Сабрина. Трагедия разбила семью, и женщина повторно вышла замуж за владельца игрушечного производства. Однажды новый супруг решает сделать куклу, точную копию той самой Сабрины. И это оказывается очень плохой идеей.

Качество: WEB-DL 720p
Формат: MKV

Видео: h.264,4 895 Кбит/с, 1280x532
Аудио#1: Русский, (AC3, 2 ch, 384 Кбит/с)
скриншот  скриншот  скриншот  

Общее
Уникальный идентификатор : 250780357104586580479535544147669158575 (0xBCAA8A384656F414B5F1E1773BF80AAF)
Полное имя : D:\Sabrina.2018.P.WEB-DL.72Op.mkv
Формат : Matroska
Версия формата : Version 2
Размер файла : 4,25 Гбайт
Продолжительность : 1 ч. 55 м.
Режим общего битрейта : Переменный
Общий поток : 5280 Кбит/сек
Дата кодирования : UTC 2018-12-18 06:57:37
Программа кодирования : mkvmerge v8.3.0 ('Over the Horizon') 64bit
Библиотека кодирования : libebml v1.3.1 + libmatroska v1.4.2

Видео
Идентификатор : 1
Формат : AVC
Формат/Информация : Advanced Video Codec
Профиль формата : High@L4.1
Параметр CABAC формата : Да
Параметр RefFrames формата : 4 кадра
Идентификатор кодека : V_MPEG4/ISO/AVC
Продолжительность : 1 ч. 55 м.
Вид битрейта : Переменный
Битрейт : 4895 Кбит/сек
Максимальный битрейт : 5500 Кбит/сек
Ширина : 1280 пикселей
Высота : 532 пикселя
Соотношение сторон : 2,40:1
Режим частоты кадров : Постоянный
Частота кадров : 23,976 (24000/1001) кадра/сек
Стандарт вещания : Component
Цветовое пространство : YUV
Субдискретизация насыщенности : 4:2:0
Битовая глубина : 8 бит
Тип развёртки : Прогрессивная
Бит/(Пиксели*Кадры) : 0.293
Размер потока : 3,85 Гбайт (91%)
Default : Да
Forced : Нет
Цветовой диапазон : Limited
Основные цвета : BT.709
Характеристики трансфера : BT.709
Коэффициенты матрицы : BT.709

Аудио
Идентификатор : 2
Формат : AC-3
Формат/Информация : Audio Coding 3
Расширение режима : CM (complete main)
Параметр Endianness формата : Big
Идентификатор кодека : A_AC3
Продолжительность : 1 ч. 55 м.
Вид битрейта : Постоянный
Битрейт : 384 Кбит/сек
Каналы : 2 канала
Расположение каналов : Front: L R
Частота : 48,0 КГц
Частота кадров : 31,250 кадров/сек (1536 spf)
Метод сжатия : С потерями
Размер потока : 316 Мбайт (7%)
Default : Да
Forced : Нет

pb.wtf



Скачать Сабрина через торрент https://b.radikal.ru/b25/1812/5d/6ee99648efa5.jpg Скачать фильм Сабрина через торрент бесплантно в хорошем качестве Описание: Год назад семейная пара потеряла в аварии маленькую дочь. Во время происшествия у той была с собой любимая кукла по имени ... 10 10 2
Торрент: Зарегистрирован [2018-12-18 15:17] · скачан: 20 раз
Статус: T временная
Размер: 4.25 GB
Как cкачать? Как скачать Сабрина через торрент | qTorrent

% Раздел Тема Автор DL S | L
Зарубежные сериалы [ 20.17 GB ] Леденящие душу Сабрины / Chilling Adventures of Sabrina / Сезон: 1-3 / Серии: 1-28 из 28 [2018-2020 WEB-DLRip] DUB [Пифагор / Netflix] bober100 Скачать
1 | 0
Зарубежные сериалы [ 12.93 GB ] Леденящие душу Сабрины / Chilling Adventures of Sabrina / Сезон: 3 / Серии 1-8 из 8 [2020 WEBRip1080p] [MVO] killermax2013 Скачать
1 | 0
Зарубежные сериалы [ 109.75 GB ] Леденящие душу Сабрины / Chilling Adventures of Sabrina / Сезон: 3 / Серии: 1-8 из 8 [2020 UHD WEB-DL 2160p] [SDR] DUB [Пифагор / Netflix] bober100 Скачать
1 | 0
Зарубежные сериалы [ 14.81 GB ] Леденящие душу Сабрины / Chilling Adventures of Sabrina / Сезон: 3 / Серии: 1-8 из 8 [2020 WEB-DL 1080p] MVO [Jaskier] bober100 Скачать
1 | 0
Зарубежные сериалы [ 9.4 GB ] Леденящие душу Сабрины / Chilling Adventures of Sabrina / Сезон: 3 / Серии: 1-8 из 8 [2020 WEB-DL 720p] MVO [Jaskier] bober100 Скачать
1 | 0
Зарубежные сериалы [ 5.52 GB ] Леденящие душу Сабрины / Chilling Adventures of Sabrina / Сезон: 3 / Серии: 1-8 из 8 [2020 WEB-DLRip] MVO [Jaskier] bober100 Скачать
1 | 0
Зарубежные сериалы [ 1.98 GB ] Леденящие душу Сабрины / Chilling Adventures of Sabrina / Сезон: 3 / Серии: 1- из 8 [2020 WEBRip 1080p] MVO [TVShows] bober100 Скачать
1 | 0

28-11-2019 20:33  

Отключить всю рекламу на сайте

    Дорогой пользователь! Огромная просьба, поблагодарите релизера, оцените раздачу и оставьте свои комментарий, если Вы скачали Сабрина через торрент бесплатно! Внесите свою лепту в развитие PiratBit!
    Комментировать посты могут только пользователи прошедшие не сложную регистрацию
    Показать сообщения:    

    Сабрина через торрент
    Скачать бесплатно Сабрина
    Сабрина скачать торрент
    Сабрина смотреть онлайн
    Cкачать фильм Сабрина бесплатно
    Сабрина скачать торрент в хорошем качестве
    Сабрина смотреть онлайн бесплатно в хорошем качестве


    Вы не можете начинать темы
    Вы не можете отвечать на сообщения
    Вы не можете редактировать свои сообщения
    Вы не можете удалять свои сообщения
    Вы не можете голосовать в опросах
    Вы не можете прикреплять файлы к сообщениям
    Вы можете скачивать файлы