Ссылка на приватное зеркало нашего сайта всего за 1$. Внимание количество ограничено!!!

2 сезон

iTunes

1 сезон

1

2 сезон

2 сезон

iTunes

1 сезон

RePack

30

Ultimate

ВАЖНО

ИГРА 18+

pack

RePack

MK11
pack

Забери бонус

RePack

jed

!!Акция!!

Alien_Rage

RePack

fifa19

RePack

Assassins Creed: Odyssey

RePack

NEED FOR SPEED™ PAYBACK

4 сезон

9 сезон

Бесстыжие 9 сезон

Все сериалы

все сериалы на PB.wtf

RePack

FAR CRY 5
  

Ожидайте дальнейших инструкций / Await Further Instructions (Джонни Кеворкян) [2018, ужасы, фантастика, детектив, BD Remux 1080p] MVO [HDRezka Studio] pb.wtf

Ожидайте дальнейших инструкций через торрент pb.wtf

Размер: 20.37 GB | Добавлен: 1 год 11 мес. назад | Торрент скачан:16 раз
Скачать  

18-12-2018 18:49 Ожидайте дальнейших инструкций Скачать торрент  

Ожидайте дальнейших инструкций / Await Further Instructions
Год выпуска: 2018
Страна: Великобритания
Жанр: ужасы, фантастика, детектив
Продолжительность: 01:30:44
Перевод: Профессиональный (многоголосый) | HDRezka Studio
Субтитры: Английские

Режиссер: Джонни Кеворкян

rating

В ролях:

Дэвид Брэдли, Эбигейл Круттенден, Сэм Гиттинс, Холли Уэстон, Грант Мастерс, Ниржа Наик, Крис Саддлер

Описание:

Ник вместе со своей девушкой Энджи приезжает в родной дом, чтобы после долгой разлуки с семьей отпраздновать с ними Рождество, однако во время ужина ситуация сильно накаляется. Пара решает уйти, пока все спят, но обнаруживает, что таинственная черная субстанция заблокировала все окна и двери. В панике семья начинает строить самые ужасные догадки и, отчаянно нуждаясь в информации, включает телевизор, который показывает зловещую надпись: «Ожидайте дальнейших инструкций». Полностью отрезанные от внешнего мира, они начинают получать странные указания, все больше впадая в безумие.

Качество: BD Remux 1080p
Формат: MKV

Видео: MPEG-4 AVC, 1080p, 1920x1080, 29979 kbps, 23.976 fps
Аудио#1: АС3, 2 ch, 48 kHz, 192 kbps HDRezka Studio
Аудио#2: DTS-HD MA, 6 ch, 48 kHz, 1963 kbps, 16-bit (DTS Core 6 ch, 48 kHz, 1509 kbps) English
скриншот  скриншот  скриншот  скриншот  

General
Unique ID : 208345126773394711433234066801652189271 (0x9CBDCFD4E0A6D80013E2DD5756B4C857)
Complete name : Await.Further.Instructions.2018.REMUX.mkv
Format : Matroska
Format version : Version 4 / Version 2
File size : 20.4 GiB
Duration : 1 h 30 min
Overall bit rate mode : Variable
Overall bit rate : 32.1 Mb/s
Movie name : Await.Further.Instructions.2018.1080p.BluRay.REMUX.AVC.DTS-HD.MA.5.1-FGT
Encoded date : UTC 2018-12-18 08:54:45
Writing application : mkvmerge v20.0.0 ('I Am The Sun') 64-bit
Writing library : libebml v1.3.5 + libmatroska v1.4.8

Video
ID : 1
Format : AVC
Format/Info : Advanced Video Codec
Format profile : High@L4.1
Format settings : CABAC / 4 Ref Frames
Format settings, CABAC : Yes
Format settings, RefFrames : 4 frames
Format settings, GOP : M=3, N=24
Codec ID : V_MPEG4/ISO/AVC
Duration : 1 h 30 min
Bit rate mode : Variable
Bit rate : 30.0 Mb/s
Maximum bit rate : 35.0 Mb/s
Width : 1 920 pixels
Height : 1 080 pixels
Display aspect ratio : 16:9
Frame rate mode : Constant
Frame rate : 23.976 (24000/1001) FPS
Standard : NTSC
Color space : YUV
Chroma subsampling : 4:2:0
Bit depth : 8 bits
Scan type : Progressive
Bits/(Pixel*Frame) : 0.603
Stream size : 19.0 GiB (93%)
Language : English
Default : Yes
Forced : No
Color range : Limited
Color primaries : BT.709
Transfer characteristics : BT.709
Matrix coefficients : BT.709

Audio #1
ID : 2
Format : AC-3
Format/Info : Audio Coding 3
Codec ID : A_AC3
Duration : 1 h 30 min
Bit rate mode : Constant
Bit rate : 192 kb/s
Channel(s) : 2 channels
Channel positions : Front: L R
Sampling rate : 48.0 kHz
Frame rate : 31.250 FPS (1536 SPF)
Bit depth : 16 bits
Compression mode : Lossy
Stream size : 125 MiB (1%)
Language : Russian
Service kind : Complete Main
Default : Yes
Forced : No

Audio #2
ID : 3
Format : DTS
Format/Info : Digital Theater Systems
Format profile : MA / Core
Codec ID : A_DTS
Duration : 1 h 30 min
Bit rate mode : Variable / Constant
Bit rate : 1 963 kb/s / 1 509 kb/s
Channel(s) : 6 channels
Channel positions : Front: L C R, Side: L R, LFE
Sampling rate : 48.0 kHz
Frame rate : 93.750 FPS (512 SPF)
Bit depth : 16 bits
Compression mode : Lossless / Lossy
Stream size : 1.24 GiB (6%)
Language : English
Default : No
Forced : No

Text
ID : 4
Format : UTF-8
Codec ID : S_TEXT/UTF8
Codec ID/Info : UTF-8 Plain Text
Duration : 1 h 27 min
Bit rate : 44 b/s
Count of elements : 1147
Stream size : 28.6 KiB (0%)
Language : English
Default : No
Forced : No

Menu
00:00:00.000 : en:Chapter 01
00:04:28.601 : en:Chapter 02
00:07:39.459 : en:Chapter 03
00:11:36.362 : en:Chapter 04
00:15:53.410 : en:Chapter 05
00:19:21.326 : en:Chapter 06
00:22:12.539 : en:Chapter 07
00:26:12.696 : en:Chapter 08
00:29:52.624 : en:Chapter 09
00:32:28.988 : en:Chapter 10
00:35:53.526 : en:Chapter 11
00:39:23.444 : en:Chapter 12
00:43:51.754 : en:Chapter 13
00:47:59.710 : en:Chapter 14
00:51:43.850 : en:Chapter 15
00:54:08.995 : en:Chapter 16
00:58:35.220 : en:Chapter 17
01:02:41.883 : en:Chapter 18
01:05:47.276 : en:Chapter 19
01:08:24.725 : en:Chapter 20
01:12:43.025 : en:Chapter 21
01:16:06.353 : en:Chapter 22
01:19:23.216 : en:Chapter 23
01:22:09.841 : en:Chapter 24
01:27:47.262 : en:Chapter 25

pb.wtf



Скачать Ожидайте дальнейших инструкций через торрент http://img14.lostpic.net/2018/12/18/3e74840704783b068a4350108baebf9e.jpg Скачать фильм Ожидайте дальнейших инструкций через торрент бесплантно в хорошем качестве Описание: Ник вместе со своей девушкой Энджи приезжает в родной дом, чтобы после долгой разлуки с семьей отпраздновать с ними Рождество, ... 10 10 2
Info! Серебряная раздача, засчитывается только 50% скачанного.
Торрент: Зарегистрирован [2018-12-18 18:49] · скачан: 16 раз
Статус: T временная
Размер: 20.37 GB
Как cкачать? Как скачать Ожидайте дальнейших инструкций через торрент | qTorrent

% Раздел Тема Автор DL S | L
T Фильмы 2018 [DVDrip, WEB-DLRip, HDrip] (DUB, MVO) [ 1.46 GB ] Ожидайте дальнейших инструкций / Await Further Instructions [2018 WEB-DLRip] MVO [HDRezka Studio] bober100 Скачать
1 | 0
T Фильмы (WEB-DL 720p, 1080p) [ 3.6 GB ] Ожидайте дальнейших инструкций / Await Further Instructions [2018 WEB-DL 1080p] MVO [HDRezka Studio] bober100 Скачать
1 | 0

28-11-2019 20:33  

Отключить всю рекламу на сайте

    Дорогой пользователь! Огромная просьба, поблагодарите релизера, оцените раздачу и оставьте свои комментарий, если Вы скачали Ожидайте дальнейших инструкций через торрент бесплатно! Внесите свою лепту в развитие PiratBit!
    Комментировать посты могут только пользователи прошедшие не сложную регистрацию
    Показать сообщения:    

    Ожидайте дальнейших инструкций через торрент
    Скачать бесплатно Ожидайте дальнейших инструкций
    Ожидайте дальнейших инструкций скачать торрент
    Ожидайте дальнейших инструкций смотреть онлайн
    Cкачать фильм Ожидайте дальнейших инструкций бесплатно
    Ожидайте дальнейших инструкций скачать торрент в хорошем качестве
    Ожидайте дальнейших инструкций смотреть онлайн бесплатно в хорошем качестве


    Вы не можете начинать темы
    Вы не можете отвечать на сообщения
    Вы не можете редактировать свои сообщения
    Вы не можете удалять свои сообщения
    Вы не можете голосовать в опросах
    Вы не можете прикреплять файлы к сообщениям
    Вы можете скачивать файлы