2 сезон

iTunes

MVO

1

2 сезон

iTunes

iTunes

1 сезон

RePack

30

Новинка

ВАЖНО

ИГРА 18+

pack

RePack

MK11
pack

Легкие деньги

RePack

jed

RePack

fifa19

RePack

RDR2

RePack

NEED FOR SPEED™ PAYBACK

4 сезон

9 сезон

Бесстыжие 9 сезон

Все сериалы

все сериалы на PB.wtf

RePack

FAR CRY 5

Anonymous, доброй ночи, мы не успеваем собрать деньги на оплату серверов за декабрь и январь, помогите нам пожалуйста в это трудное время. В качестве благодарности мы отключим Вам всю рекламу на сайте (укажите свой ник в строку Ваше имя)!

×
  
Magnet ссылка

Няня / The Babysitter (МакДжи) [2017, Ужасы, WEBRip] MVO [Jaskier] pb.wtf

Няня через торрент pb.wtf

Размер: 1.45 GB | Добавлен: 2 года 1 мес. назад | Торрент скачан:242 раза
Скачать  

19-12-2018 03:20 Няня Скачать торрент  

Няня / The Babysitter Год выпуска: 2017
Страна: США
Жанр: Ужасы
Продолжительность: 01:25:13
Перевод: Профессиональный (многоголосый) | Jaskier
Субтитры: отсутствуют

Режиссер: МакДжи

rating


В ролях:

Белла Торн, Самара Уивинг, Лесли Бибб, Робби Амелл, Хана Мэй Ли, Эмили Элин Линд, Эндрю Бэчелор, Джуда Льюис, Даг Хейли, Крис Уайлд

Описание:

Коул по уши влюблён в свою няню Би — красивую, весёлую, умную и уверенную в себе девушку. Однажды ночью мальчишка решает не ложиться спать и проследить за ней. Но события принимают неожиданный поворот: няня оказывается хладнокровной убийцей, служащей самому дьяволу.

Качество: WEBRip
Формат: AVI

Видео: XviD, 720x304, 23.976 fps, 2042 kbps
Аудио: AC3, 6 ch, 384 kbps
скриншот  скриншот  скриншот  

Общее
Полное имя : G:ЗагрузкиThe.Babysitter.2017.WEBRip.Jaskier.avi
Формат : AVI
Формат/Информация : Audio Video Interleave
Размер файла : 1,45 Гбайт
Продолжительность : 1 ч. 25 м.
Общий поток : 2435 Кбит/сек
Программа кодирования : VirtualDubMod 1.5.10.3 | www.virtualdub-fr.org || (build 2550/release)
Библиотека кодирования : VirtualDubMod build 2550/release

Видео
Идентификатор : 0
Формат : MPEG-4 Visual
Профиль формата : Advanced Simple@L5
Настройки формата : BVOP1 / Custom Matrix
Параметр BVOP формата : 1
Параметр QPel формата : Нет
Параметр GMC формата : Без точки перехода
Параметр матрицы формата : Выборочная
Идентификатор кодека : XVID
Идентификатор кодека/Подсказка : XviD
Продолжительность : 1 ч. 25 м.
Битрейт : 2042 Кбит/сек
Ширина : 720 пикселей
Высота : 304 пикселя
Соотношение сторон : 2,35:1
Частота кадров : 23,976 (24000/1001) кадра/сек
Цветовое пространство : YUV
Субдискретизация насыщенности : 4:2:0
Битовая глубина : 8 бит
Тип развёртки : Прогрессивная
Метод сжатия : С потерями
Бит/(Пиксели*Кадры) : 0.389
Размер потока : 1,22 Гбайт (84%)
Библиотека кодирования : XviD 73

Аудио
Идентификатор : 1
Формат : AC-3
Формат/Информация : Audio Coding 3
Коммерческое название : Dolby Digital
Идентификатор кодека : 2000
Продолжительность : 1 ч. 25 м.
Вид битрейта : Постоянный
Битрейт : 384 Кбит/сек
Каналы : 6 каналов
Channel layout : L R C LFE Ls Rs
Частота : 48,0 КГц
Частота кадров : 31,250 кадров/сек (1536 SPF)
Битовая глубина : 16 бит
Метод сжатия : С потерями
Размер потока : 234 Мбайт (16%)
Выравнивание : Разделение по промежуткам
Продолжительность промежутка : 42 мс. (1,00 видеокадр)
Время предзагрузки промежутка : 500 мс.

pb.wtf



Скачать Няня через торрент http://img11.lostpic.net/2018/11/15/abda4c3a00e7f5042a97ebd396c3f392.png Скачать фильм Няня через торрент бесплантно в хорошем качестве Описание: Коул по уши влюблён в свою няню Би — красивую, весёлую, умную и уверенную в себе девушку. Однажды ночью мальчишка решает не ... 9.7 10 7
Торрент: Зарегистрирован [2018-12-19 03:20] · скачан: 242 раз
Статус: √ проверено
Размер: 1.45 GB
Как cкачать? Как скачать Няня через торрент | UTorrent

% Раздел Тема Автор DL S | L
Фильмы 2019-2020 [DVDrip, WEB-DLRip, HDrip] (DUB, MVO) [ 748 MB ] Няня. Королева проклятых / Няня: Королева убийц / The Babysitter: Killer Queen [2020 WEB-DLRip] MVO [HDRezka Studio] bober100 Скачать
1 | 0
Фильмы 2019-2020 [DVDrip, WEB-DLRip, HDrip] (DUB, MVO) [ 1.46 GB ] Няня. Королева проклятых / Няня: Королева убийц / The Babysitter: Killer Queen [2020 WEB-DLRip] MVO [HDRezka Studio] bober100 Скачать
1 | 0
Фильмы 2019-2020 [DVDrip, WEB-DLRip, HDrip] (DUB, MVO) [ 750 MB ] Няня. Королева проклятых / The Babysitter: Killer Queen [2020 WEB-DLRip-AVC] [MVO] [HDRezka Studio] от MediaBit Lithuania Скачать
1 | 0
Фильмы (WEB-DL 720p, 1080p) [ 4.63 GB ] Няня. Королева проклятых / Няня: Королева убийц / The Babysitter: Killer Queen [2020 WEB-DL 1080p] [MVO] killermax2013 Скачать
17 | 1
Гонзо [ 1.21 GB ] Кто трахает няню / Who's Banging The Babysitter [2017 Roleplay Gonzo Young DVDRip] Скорпион1976 Скачать
5 | 0
Гонзо [ 889 MB ] Развращение Няни 3 / Busting the Babysitter 3 [2019 All Sex Anal Oral Gonzo Legal Teen Couples Affairs & Love Triangles Babysitter WEB-DLRip] sheker187 Скачать
1 | 0
Гонзо [ 2.22 GB ] Милая Маленькая Няня 9 / The Cute Little Babysitter 9 [2019 All Sex Anal Oral Gonzo Legal Teen Facial Couples Babysitter Older Men WEB-DLRip] sheker187 Скачать
1 | 0

28-11-2019 20:33  

Отключить всю рекламу на сайте

    Дорогой пользователь! Огромная просьба, поблагодарите релизера, оцените раздачу и оставьте свои комментарий, если Вы скачали Няня через торрент бесплатно! Внесите свою лепту в развитие PiratBit!
    Комментировать посты могут только пользователи прошедшие не сложную регистрацию
    Показать сообщения:    

    Няня через торрент
    Скачать бесплатно Няня
    Няня скачать торрент
    Няня смотреть онлайн
    Cкачать фильм Няня бесплатно
    Няня скачать торрент в хорошем качестве
    Няня смотреть онлайн бесплатно в хорошем качестве


    Вы не можете начинать темы
    Вы не можете отвечать на сообщения
    Вы не можете редактировать свои сообщения
    Вы не можете удалять свои сообщения
    Вы не можете голосовать в опросах
    Вы не можете прикреплять файлы к сообщениям
    Вы можете скачивать файлы