Ссылка на приватное зеркало нашего сайта всего за 1$. Внимание количество ограничено!!!

2 сезон

iTunes

iTunes

1

iTunes

iTunes

iTunes

WEBRip

iTunes

30
pack

Вам бонус

ВАЖНО

!!Акция!!

Alien_RageХит недели

RePack

Horizon Zero Dawn

ИГРА 18+

pack

RePack

jed

!!Акция!!

Alien_Rage

RePack

fifa19

RePack

Assassins Creed: Odyssey

RePack

NEED FOR SPEED™ PAYBACK

4 сезон

9 сезон

Бесстыжие 9 сезон

Все сериалы

все сериалы на PB.wtf

RePack

FAR CRY 5
  

Остроконечная звезда / Holly Star (Майкл А. Никлз) [2018 г., Комедия, WEB-DLRip, Любительский (многоголосый)(Синема УС)] pb.wtf

Остроконечная звезда через торрент pb.wtf

Размер: 1.35 GB | Добавлен: 1 год 9 мес. назад | Торрент скачан:83 раза
Скачать  

19-12-2018 05:09 Остроконечная звезда Скачать торрент  

Остроконечная звезда / Holly Star
Год выпуска: 2018
Страна: США
Жанр: Комедия
Продолжительность: 01:31:11
Перевод: Любительский (многоголосый)(Синема УС)
Субтитры: Отсутствуют

Режиссер: Майкл А. Никлз

rating

В ролях: Майкл А. Никлз, Брайан Мюллер, Эрик Ван Вик, Кэтлин Карлсон, Тейя Пэтт, Гари Галоун, Лонни Фармер, Брюс-Роберт Серафин, Уильям МакДонаф III

Описание: Главная героиня фильма – молодая девушка с активной жизненной позицией. Она любит приключения и возвращается в родительский дом накануне рождественских праздников, чтобы собрать компанию и вскоре отправиться в увлекательное путешествие. Главной целью этого путешествия станет поиск сокровищ, а в поход вместе с ней отправится несколько самых близких ей людей...

Доп. информация: Присутствуют вставки текстовой рекламы

Качество: WEB-DLRip
Формат: AVI
Видео кодек: XviD
Аудио кодек: AC3
Видео: XviD, 720x304, ~1717 Kbps
Аудио#1: AC-3, 2 ch, 384 Kbps
скриншот   скриншот   скриншот   скриншот  

Общее
Полное имя : C:\_\Остроконечная звезда\Holly Star 2018 WEB-DLRip.avi
Формат : AVI
Формат/Информация : Audio Video Interleave
Профиль формата : OpenDML
Размер файла : 1,35 Гбайт
Продолжительность : 1 ч. 31 м.
Общий поток : 2113 Кбит/сек

Видео
Идентификатор : 0
Формат : MPEG-4 Visual
Профиль формата : Advanced Simple@L5
Параметр BVOP формата : 2
Параметр QPel формата : Нет
Параметр GMC формата : Без точки перехода
Параметр матрицы формата : Выборочная
Идентификатор кодека : XVID
Идентификатор кодека/Подсказка : XviD
Продолжительность : 1 ч. 31 м.
Битрейт : 1717 Кбит/сек
Ширина : 720 пикселей
Высота : 304 пикселя
Соотношение сторон : 2,35:1
Частота кадров : 23,976 (24000/1001) кадра/сек
Цветовое пространство : YUV
Субдискретизация насыщенности : 4:2:0
Битовая глубина : 8 бит
Тип развёртки : Прогрессивная
Метод сжатия : С потерями
Бит/(Пиксели*Кадры) : 0.327
Размер потока : 1,09 Гбайт (81%)
Библиотека кодирования : XviD 1.2.1 (UTC 2008-12-04)

Аудио
Идентификатор : 1
Формат : AC-3
Формат/Информация : Audio Coding 3
Расширение режима : CM (complete main)
Параметр Endianness формата : Big
Идентификатор кодека : 2000
Продолжительность : 1 ч. 31 м.
Вид битрейта : Постоянный
Битрейт : 384 Кбит/сек
Каналы : 2 канала
Расположение каналов : Front: L R
Частота : 48,0 КГц
Частота кадров : 31,250 кадров/сек (1536 spf)
Метод сжатия : С потерями
Размер потока : 250 Мбайт (18%)
Выравнивание : Соединение по промежуткам
Продолжительность промежутка : 32 мс. (0,77 видеокадр)

pb.wtf



Скачать Остроконечная звезда через торрент http://pic1.kartinco.top/images/12/8fe5i.jpg Скачать фильм Остроконечная звезда через торрент бесплантно в хорошем качестве Описание: Главная героиня фильма – молодая девушка с активной жизненной позицией. Она любит приключения и возвращается в родительский дом ... 8.5 10 2
Торрент: Зарегистрирован [2018-12-19 05:09] · скачан: 83 раз
Статус: T временная
Размер: 1.35 GB
Как cкачать? Как скачать Остроконечная звезда через торрент | qTorrent

28-11-2019 20:33  

Отключить всю рекламу на сайте

    Дорогой пользователь! Огромная просьба, поблагодарите релизера, оцените раздачу и оставьте свои комментарий, если Вы скачали Остроконечная звезда через торрент бесплатно! Внесите свою лепту в развитие PiratBit!
    Комментировать посты могут только пользователи прошедшие не сложную регистрацию
    Показать сообщения:    

    Остроконечная звезда через торрент
    Скачать бесплатно Остроконечная звезда
    Остроконечная звезда скачать торрент
    Остроконечная звезда смотреть онлайн
    Cкачать фильм Остроконечная звезда бесплатно
    Остроконечная звезда скачать торрент в хорошем качестве
    Остроконечная звезда смотреть онлайн бесплатно в хорошем качестве


    Вы не можете начинать темы
    Вы не можете отвечать на сообщения
    Вы не можете редактировать свои сообщения
    Вы не можете удалять свои сообщения
    Вы не можете голосовать в опросах
    Вы не можете прикреплять файлы к сообщениям
    Вы можете скачивать файлы