новый адрес
Ссылка на приватное зеркало всего за 1$. Внимание количество ограничено!!!

iTunes

1+1

iTunes

мы

WEB-DL

1

iTunes

Чернобыль

iTunes

Ральф против интернета

Лицензия

ПШазам

Лицензия

Оно 2

Лицензия

30
pack

Вам бонус

ВАЖНО

!!Акция!!

Alien_RageХит недели

RePack

Resident Evil 21

ИГРА 18+

pack

RePack

jed

!!Акция!!

Alien_Rage

RePack

fifa19

RePack

Assassins Creed: Odyssey

RePack

NEED FOR SPEED™ PAYBACK

3 сезон

9 сезон

Бесстыжие 9 сезон

Все сериалы

все сериалы на PB.wtf

RePack

FAR CRY 5
Ребята, катастрофически не хватает 1900р. для оплаты серверов за Октябрь (всвязи с блокировками трафик упал в 3 раза), 1-2р., выручайте.
  

Пациент Зеро / Нулевой пациент / Patient Zero (Штефан Руцовицки) [2018, Ужасы, боевик, драма, BDRip] MVO [Jaskier] pb.wtf

Пациент Зеро через торрент pb.wtf

Размер: 1.46 GB | Добавлен: 11 мес. назад | Торрент скачан:135 раз
Скачать  

19-12-2018 05:40 Пациент Зеро Скачать торрент  

Пациент Зеро / Нулевой пациент / Patient Zero
Год выпуска: 2018
Страна: Великобритания
Жанр: Ужасы, боевик, драма
Продолжительность: 01:26:46
Перевод: Профессиональный (многоголосый) | Jaskier
Субтитры: отсутствуют

Режиссер: Штефан Руцовицки

rating


В ролях:

Натали Дормер, Мэтт Смит, Стэнли Туччи, Клайв Стэнден, Фредерик Шмидт, Агнесс Дейн, Джон Брэдли, Пиппа Беннетт-Уорнер, Колин МакФарлэйн, Дильяна Буклиева

Описание:

По Земле прокатился вирус, в результате которого большая часть населения превратилась в кровожадных и жестоких безумцев или, иными словами, в «инфицированных». Цивилизация погружается в хаос, человечество стоит на грани вымирания. Правда, некоторые люди имеют особый дар — понимать речь инфицированных и разговаривать с ними. Одним из немногих, кто наделен такой способностью, оказывается доктор Морган. Его жена тоже заражена. Морган решает найти так называемого пациента Зеро, с помощью которого можно создать антивирус и спасти человечество.

Качество: BDRip
Формат: AVI

Видео: XviD, 720x304, 23.976 fps, 2008 kbps
Аудио: AC3, 6 ch, 384 kbps
скриншот  скриншот  скриншот  

Общее
Полное имя : G:ЗагрузкиPatient.Zero.2018.BDRip.Jaskier.avi
Формат : AVI
Формат/Информация : Audio Video Interleave
Размер файла : 1,46 Гбайт
Продолжительность : 1 ч. 26 м.
Общий поток : 2401 Кбит/сек
Программа кодирования : VirtualDubMod 1.5.10.3 | www.virtualdub-fr.org || (build 2550/release)
Библиотека кодирования : VirtualDubMod build 2550/release

Видео
Идентификатор : 0
Формат : MPEG-4 Visual
Профиль формата : Advanced Simple@L5
Настройки формата : BVOP1 / Custom Matrix
Параметр BVOP формата : 1
Параметр QPel формата : Нет
Параметр GMC формата : Без точки перехода
Параметр матрицы формата : Выборочная
Идентификатор кодека : XVID
Идентификатор кодека/Подсказка : XviD
Продолжительность : 1 ч. 26 м.
Битрейт : 2008 Кбит/сек
Ширина : 720 пикселей
Высота : 304 пикселя
Соотношение сторон : 2,35:1
Частота кадров : 23,976 (24000/1001) кадра/сек
Цветовое пространство : YUV
Субдискретизация насыщенности : 4:2:0
Битовая глубина : 8 бит
Тип развёртки : Прогрессивная
Метод сжатия : С потерями
Бит/(Пиксели*Кадры) : 0.383
Размер потока : 1,22 Гбайт (84%)
Библиотека кодирования : XviD 67

Аудио
Идентификатор : 1
Формат : AC-3
Формат/Информация : Audio Coding 3
Коммерческое название : Dolby Digital
Идентификатор кодека : 2000
Продолжительность : 1 ч. 26 м.
Вид битрейта : Постоянный
Битрейт : 384 Кбит/сек
Каналы : 6 каналов
Channel layout : L R C LFE Ls Rs
Частота : 48,0 КГц
Частота кадров : 31,250 кадров/сек (1536 SPF)
Битовая глубина : 16 бит
Метод сжатия : С потерями
Размер потока : 238 Мбайт (16%)
Выравнивание : Разделение по промежуткам
Продолжительность промежутка : 42 мс. (1,00 видеокадр)
Время предзагрузки промежутка : 500 мс.

pb.wtf



Скачать Пациент Зеро через торрент http://img11.lostpic.net/2018/11/20/b0aaf322026579efa84c0624681c9316.png Скачать фильм Пациент Зеро через торрент бесплантно в хорошем качестве Описание: По Земле прокатился вирус, в результате которого большая часть населения превратилась в кровожадных и жестоких безумцев или, ... 9.2 10 9
Торрент: Зарегистрирован [2018-12-19 05:40] · скачан: 135 раз
Статус: √ проверено
Размер: 1.46 GB
Как cкачать? Как скачать Пациент Зеро через торрент | qTorrent

% Раздел Тема Автор DL S | L
# Фильмы (мультфильмы) cо спонсором показа (Новинки AVI/MKV) [ 8.04 GB ] Пациент Зеро / Нулевой пациент / Patient Zero [2018 BDRip 1080p] MVO [Официальный звук] bober100 Скачать
1 | 0
Фильмы [HD 720p, 1080p] (Хороший звук DUB, MVO) [ 3.41 GB ] Пациент Зеро / Нулевой пациент / Patient Zero [2018 BDRip 720p] MVO [Jaskier] bober100 Скачать
1 | 0
T Фильмы (Blu-ray, BD-Remux, HDDVD) [ 16.58 GB ] Пациент Зеро / Нулевой пациент / Patient Zero [2018 BD Remux 1080p] MVO [HDRezka Studio] bober100 Скачать
1 | 0
# Фильмы (мультфильмы) cо спонсором показа (Новинки AVI/MKV) [ 4.65 GB ] Пациент Зеро / Нулевой пациент / Patient Zero [2018 BDRip 720p] MVO [Официальный звук] bober100 Скачать
1 | 0
T Фильмы (мультфильмы) cо спонсором показа (Новинки AVI/MKV) [ 1.37 GB ] Пациент Зеро / Нулевой пациент / Patient Zero [2018 HDRip] MVO [Официальный звук] bober100 Скачать
1 | 0
T Фильмы 2018 [DVDrip, WEB-DLRip, HDrip] (DUB, MVO) [ 1.46 GB ] Пациент Зеро / Нулевой пациент / Patient Zero [2018 BDRip] MVO [HDRezka Studio] Twi7ter Скачать
1 | 0
T Фильмы (WEB-DL 720p, 1080p) [ 2.79 GB ] Пациент Зеро / Нулевой пациент / Patient Zero [2018 WEB-DL 720p] MVO [HDRezka Studio] bober100 Скачать
1 | 0

28-11-2019 20:33  

Отключить всю рекламу на сайте

    Дорогой пользователь! Огромная просьба, поблагодарите релизера, оцените раздачу и оставьте свои комментарий, если Вы скачали Пациент Зеро через торрент бесплатно! Внесите свою лепту в развитие PiratBit!
    Комментировать посты могут только пользователи прошедшие не сложную регистрацию
    Показать сообщения:    

    Пациент Зеро через торрент
    Скачать бесплатно Пациент Зеро
    Пациент Зеро скачать торрент
    Пациент Зеро смотреть онлайн
    Cкачать фильм Пациент Зеро бесплатно
    Пациент Зеро скачать торрент в хорошем качестве
    Пациент Зеро смотреть онлайн бесплатно в хорошем качестве


    Вы не можете начинать темы
    Вы не можете отвечать на сообщения
    Вы не можете редактировать свои сообщения
    Вы не можете удалять свои сообщения
    Вы не можете голосовать в опросах
    Вы не можете прикреплять файлы к сообщениям
    Вы можете скачивать файлы