Всегда рабочее зеркало без VPN и Proxy просто перед .vidak.icu напиши любое слово или цифру, Пример http://h5ua.vidak.icu

MVO

2 сезон

1 сезон

1

1 сезон

iTunes

2 сезон

13

1 сезон

Deluxe

pack

Рекомендуем

Пиратка

30

ВАЖНО

RePack

MK11

RePack

jed

RePack

fifa19

RePack

RDR2

RePack

NEED FOR SPEED™ PAYBACK

Кинопоиск HD

6 сезон

 Острые козырьки 6 сезон

Все сериалы

все сериалы на PB.wtf

RePack

FAR CRY 5

Anonymous, нам критически не хватает 5601 руб. на оплату серверов и переферии за Апрель, помоги нам пожалуйста, вся надежда только на тебя. В благодарность мы отключим тебе всю рекламу на сайте!

×
  
Magnet ссылка

Пациент Зеро / Нулевой пациент / Patient Zero (Штефан Руцовицки) [2018, Ужасы, боевик, драма, BDRip 720p] MVO [Jaskier] pb.wtf

Пациент Зеро через торрент pb.wtf

Размер: 3.41 GB | Добавлен: 3 года 5 мес. назад | Торрент скачан:99 раз
Смотреть онлайн Пациент Зеро | Скачать    Ребята, помогите собрать деньги на оплату серверов!!!

19-12-2018 05:40 Пациент Зеро Скачать торрент  

Пациент Зеро / Нулевой пациент / Patient Zero
Год выпуска: 2018
Страна: Великобритания
Жанр: Ужасы, боевик, драма
Продолжительность: 01:26:46
Перевод: Профессиональный (многоголосый) | Jaskier
Субтитры: английские (full)

Режиссер: Штефан Руцовицки

rating


В ролях:

Натали Дормер, Мэтт Смит, Стэнли Туччи, Клайв Стэнден, Фредерик Шмидт, Агнесс Дейн, Джон Брэдли, Пиппа Беннетт-Уорнер, Колин МакФарлэйн, Дильяна Буклиева

Описание:

По Земле прокатился вирус, в результате которого большая часть населения превратилась в кровожадных и жестоких безумцев или, иными словами, в «инфицированных». Цивилизация погружается в хаос, человечество стоит на грани вымирания. Правда, некоторые люди имеют особый дар — понимать речь инфицированных и разговаривать с ними. Одним из немногих, кто наделен такой способностью, оказывается доктор Морган. Его жена тоже заражена. Морган решает найти так называемого пациента Зеро, с помощью которого можно создать антивирус и спасти человечество.

Качество: BDRip 720p
Формат: MKV

Видео: MPEG-4 AVC, 4350 kb/s, 1280x534
Аудио#1: Russian: AC3, 640 kb/s (6 ch)
Аудио#2: English: AC3, 640 kb/s (6 ch)
скриншот  скриншот  скриншот  

Общее
Уникальный идентификатор : 216491919792097807423503689494174719065 (0xA2DED3BD1FA8666F8AE06C9902FD5C59)
Полное имя : G:ЗагрузкиPatient.Zero.2018.BDRip.720p.JASKiER.mkv
Формат : Matroska
Версия формата : Version 2
Размер файла : 3,41 Гбайт
Продолжительность : 1 ч. 26 м.
Общий поток : 5632 Кбит/сек
Дата кодирования : UTC 2018-12-19 01:20:51
Программа кодирования : mkvmerge v7.8.0 ('River Man') 32bit built on Apr 3 2015 12:11:22
Библиотека кодирования : libebml v1.3.1 + libmatroska v1.4.2

Видео
Идентификатор : 1
Формат : AVC
Формат/Информация : Advanced Video Codec
Профиль формата : High@L4.1
Настройки формата : CABAC / 12 Ref Frames
Параметр CABAC формата : Да
Параметр RefFrames формата : 12 кадров
Идентификатор кодека : V_MPEG4/ISO/AVC
Продолжительность : 1 ч. 26 м.
Битрейт : 4240 Кбит/сек
Ширина : 1280 пикселей
Высота : 534 пикселя
Соотношение сторон : 2,40:1
Режим частоты кадров : Постоянный
Частота кадров : 23,976 (24000/1001) кадра/сек
Цветовое пространство : YUV
Субдискретизация насыщенности : 4:2:0
Битовая глубина : 8 бит
Тип развёртки : Прогрессивная
Бит/(Пиксели*Кадры) : 0.259
Размер потока : 2,57 Гбайт (75%)
Библиотека кодирования : x264 core 155 r2867+82 a249126 t_mod_Custom_2 [8-bit@all X86_64]
Настройки программы : cabac=1 / ref=12 / deblock=1:-3:-3 / analyse=0x3:0x133 / me=umh / subme=10 / psy=1 / fade_compensate=0.00 / psy_rd=1.00:0.00 / mixed_ref=1 / me_range=32 / chroma_me=1 / trellis=2 / 8x8dct=1 / cqm=0 / deadzone=21,11 / fast_pskip=0 / chroma_qp_offset=-2 / threads=12 / lookahead_threads=2 / sliced_threads=0 / nr=0 / decimate=0 / interlaced=0 / bluray_compat=0 / constrained_intra=0 / fgo=0 / bframes=8 / b_pyramid=2 / b_adapt=2 / b_bias=0 / direct=3 / weightb=1 / open_gop=0 / weightp=2 / keyint=250 / keyint_min=23 / scenecut=40 / intra_refresh=0 / rc_lookahead=60 / rc=crf / mbtree=0 / crf=15.2000 / qcomp=0.60 / qpmin=0:0:0 / qpmax=69:69:69 / qpstep=4 / vbv_maxrate=62500 / vbv_bufsize=78125 / crf_max=0.0 / nal_hrd=none / filler=0 / ip_ratio=1.30 / pb_ratio=1.20 / aq=3:0.80 / aq-sensitivity=10.00 / aq-factor=1.00:1.00:1.00 / aq2=0 / aq3=0 / zones=372,2739,crf=16.8
Язык : English
Default : Да
Forced : Нет

Аудио #1
Идентификатор : 2
Формат : AC-3
Формат/Информация : Audio Coding 3
Коммерческое название : Dolby Digital
Идентификатор кодека : A_AC3
Продолжительность : 1 ч. 26 м.
Вид битрейта : Постоянный
Битрейт : 640 Кбит/сек
Каналы : 6 каналов
Channel layout : L R C LFE Ls Rs
Частота : 48,0 КГц
Частота кадров : 31,250 кадров/сек (1536 SPF)
Битовая глубина : 16 бит
Метод сжатия : С потерями
Размер потока : 397 Мбайт (11%)
Заголовок : Jaskier
Язык : Russian
Default : Да
Forced : Нет

Аудио #2
Идентификатор : 3
Формат : AC-3
Формат/Информация : Audio Coding 3
Коммерческое название : Dolby Digital
Идентификатор кодека : A_AC3
Продолжительность : 1 ч. 26 м.
Вид битрейта : Постоянный
Битрейт : 640 Кбит/сек
Каналы : 6 каналов
Channel layout : L R C LFE Ls Rs
Частота : 48,0 КГц
Частота кадров : 31,250 кадров/сек (1536 SPF)
Битовая глубина : 16 бит
Метод сжатия : С потерями
Размер потока : 397 Мбайт (11%)
Язык : English
Default : Нет
Forced : Нет

Текст #1
Идентификатор : 4
Формат : UTF-8
Идентификатор кодека : S_TEXT/UTF8
Идентификатор кодека/Информация : UTF-8 Plain Text
Язык : English
Default : Нет
Forced : Нет

Текст #2
Идентификатор : 5
Формат : UTF-8
Идентификатор кодека : S_TEXT/UTF8
Идентификатор кодека/Информация : UTF-8 Plain Text
Заголовок : SDH
Язык : English
Default : Нет
Forced : Нет

Меню
00:00:00.000 : en:Chapter 01
00:05:08.725 : en:Chapter 02
00:12:52.021 : en:Chapter 03
00:16:53.387 : en:Chapter 04
00:24:09.948 : en:Chapter 05
00:29:51.539 : en:Chapter 06
00:32:37.163 : en:Chapter 07
00:39:08.971 : en:Chapter 08
00:43:31.900 : en:Chapter 09
00:49:48.527 : en:Chapter 10
00:54:39.067 : en:Chapter 11
01:00:10.982 : en:Chapter 12
01:04:38.249 : en:Chapter 13
01:09:54.523 : en:Chapter 14
01:15:23.101 : en:Chapter 15
01:19:12.414 : en:Chapter 16

pb.wtf



Скачать Пациент Зеро через торрент http://img11.lostpic.net/2018/11/20/b0aaf322026579efa84c0624681c9316.png Скачать, смотреть онлайн Пациент Зеро бесплантно в хорошем качестве Описание: По Земле прокатился вирус, в результате которого большая часть населения превратилась в кровожадных и жестоких безумцев или, ... 10 10 1
Info! Золотая раздача, скачанное не засчитывается.
Торрент: Зарегистрирован [2018-12-19 05:40] · скачан: 99 раз
Статус: √ проверено
Размер: 3.41 GB
Как cкачать? Как скачать Пациент Зеро через торрент | UTorrent

% Раздел Тема Автор DL S | L
# Фильмы (мультфильмы) cо спонсором показа (Новинки AVI/MKV) [ 8.04 GB ] Пациент Зеро / Нулевой пациент / Patient Zero [2018 BDRip 1080p] MVO [Официальный звук] bober100 Скачать
1 | 0
Фильмы 2018 [DVDrip, WEB-DLRip, HDrip] (DUB, MVO) [ 1.46 GB ] Пациент Зеро / Нулевой пациент / Patient Zero [2018 BDRip] MVO [Jaskier] bober100 Скачать
1 | 0
T Фильмы (Blu-ray, BD-Remux, HDDVD) [ 16.58 GB ] Пациент Зеро / Нулевой пациент / Patient Zero [2018 BD Remux 1080p] MVO [HDRezka Studio] bober100 Скачать
1 | 0
# Фильмы (мультфильмы) cо спонсором показа (Новинки AVI/MKV) [ 4.65 GB ] Пациент Зеро / Нулевой пациент / Patient Zero [2018 BDRip 720p] MVO [Официальный звук] bober100 Скачать
1 | 0
T Фильмы (мультфильмы) cо спонсором показа (Новинки AVI/MKV) [ 1.37 GB ] Пациент Зеро / Нулевой пациент / Patient Zero [2018 HDRip] MVO [Официальный звук] bober100 Скачать
1 | 0
T Фильмы 2018 [DVDrip, WEB-DLRip, HDrip] (DUB, MVO) [ 1.46 GB ] Пациент Зеро / Нулевой пациент / Patient Zero [2018 BDRip] MVO [HDRezka Studio] Twi7ter Скачать
2 | 0
T Фильмы (WEB-DL 720p, 1080p) [ 2.79 GB ] Пациент Зеро / Нулевой пациент / Patient Zero [2018 WEB-DL 720p] MVO [HDRezka Studio] bober100 Скачать
1 | 0

28-11-2019 20:33  

Отключить всю рекламу на сайте

    Дорогой пользователь! Огромная просьба, поблагодарите релизера, оцените раздачу и оставьте свои комментарий, если Вы скачали Пациент Зеро через торрент бесплатно!
    Комментировать посты могут только пользователи прошедшие не сложную регистрацию
    Показать сообщения:    

    Пациент Зеро через торрент
    Скачать бесплатно Пациент Зеро
    Пациент Зеро скачать торрент
    Пациент Зеро смотреть онлайн
    Cкачать фильм Пациент Зеро бесплатно
    Пациент Зеро скачать торрент в хорошем качестве
    Пациент Зеро смотреть онлайн бесплатно в хорошем качестве


    Вы не можете начинать темы
    Вы не можете отвечать на сообщения
    Вы не можете редактировать свои сообщения
    Вы не можете удалять свои сообщения
    Вы не можете голосовать в опросах
    Вы не можете прикреплять файлы к сообщениям
    Вы можете скачивать файлы