2 сезон

iTunes

MVO

1

2 сезон

iTunes

iTunes

1 сезон

RePack

30

Новинка

ВАЖНО

ИГРА 18+

pack

RePack

MK11
pack

Легкие деньги

RePack

jed

RePack

fifa19

RePack

RDR2

RePack

NEED FOR SPEED™ PAYBACK

4 сезон

9 сезон

Бесстыжие 9 сезон

Все сериалы

все сериалы на PB.wtf

RePack

FAR CRY 5

Anonymous, добрый вечер, мы не успеваем собрать деньги на оплату серверов за декабрь и январь, помогите нам пожалуйста в это трудное время. В качестве благодарности мы отключим Вам всю рекламу на сайте (укажите свой ник в строку Ваше имя)!

×
  
Magnet ссылка

Драка в блоке 99 / Brawl in Cell Block 99 (С. Крэйг Залер) [2017, боевик, триллер, криминал, BDRip] MVO [Jaskier] pb.wtf

Драка в блоке 99 через торрент pb.wtf

Размер: 2.12 GB | Добавлен: 2 года 1 мес. назад | Торрент скачан:205 раз
Скачать  

19-12-2018 07:48 Драка в блоке 99 Скачать торрент  

Драка в блоке 99 / Brawl in Cell Block 99
Год выпуска: 2017
Страна: США
Жанр: боевик, триллер, криминал
Продолжительность: 02:12:23
Перевод: Профессиональный (многоголосый) | Jaskier
Субтитры: отсутствуют

Режиссер: С. Крэйг Залер

rating

В ролях:

Винс Вон, Дженнифер Карпентер, Том Гайри, Дон Джонсон, Марк Блукас, Удо Кир, Мустафа Жакир, Гено Седжерс, Роб Морган, Фред Меламед

Описание:

Бывший боксер и наркодилер Брэдли Томас пытался завязать с преступным прошлым, но оно затащило его обратно. Он с подельниками попался с поличным и отправился в тюрьму на 7 лет. И всё это так не вовремя, жена беременна долгожданной дочкой, а тут ещё на свиданку заявляется непонятный тип и, шантажируя нерожденным ребенком, велит Брэдли убить заключённого в блоке 99 тюрьмы строгого режима.

Качество: BDRip
Формат: AVI

Видео: XviD, 704x384, 23.976 fps, 1901 kbps
Аудио: AC3, 6 ch, 384 kbps
скриншот  скриншот  скриншот  

Общее
Полное имя : G:ЗагрузкиBrawl.in.Cell.Block.99.2017.BDRip.Jaskier.avi
Формат : AVI
Формат/Информация : Audio Video Interleave
Размер файла : 2,12 Гбайт
Продолжительность : 2 ч. 12 м.
Общий поток : 2294 Кбит/сек
Программа кодирования : VirtualDubMod 1.5.10.3 | www.virtualdub-fr.org || (build 2550/release)
Библиотека кодирования : VirtualDubMod build 2550/release

Видео
Идентификатор : 0
Формат : MPEG-4 Visual
Профиль формата : Advanced Simple@L5
Настройки формата : BVOP1 / Custom Matrix
Параметр BVOP формата : 1
Параметр QPel формата : Нет
Параметр GMC формата : Без точки перехода
Параметр матрицы формата : Выборочная
Идентификатор кодека : XVID
Идентификатор кодека/Подсказка : XviD
Продолжительность : 2 ч. 12 м.
Битрейт : 1901 Кбит/сек
Ширина : 704 пикселя
Высота : 384 пикселя
Соотношение сторон : 1,85:1
Частота кадров : 23,976 (24000/1001) кадра/сек
Цветовое пространство : YUV
Субдискретизация насыщенности : 4:2:0
Битовая глубина : 8 бит
Тип развёртки : Прогрессивная
Метод сжатия : С потерями
Бит/(Пиксели*Кадры) : 0.293
Размер потока : 1,76 Гбайт (83%)
Библиотека кодирования : XviD 73

Аудио
Идентификатор : 1
Формат : AC-3
Формат/Информация : Audio Coding 3
Коммерческое название : Dolby Digital
Идентификатор кодека : 2000
Продолжительность : 2 ч. 12 м.
Вид битрейта : Постоянный
Битрейт : 384 Кбит/сек
Каналы : 6 каналов
Channel layout : L R C LFE Ls Rs
Частота : 48,0 КГц
Частота кадров : 31,250 кадров/сек (1536 SPF)
Битовая глубина : 16 бит
Метод сжатия : С потерями
Размер потока : 364 Мбайт (17%)
Выравнивание : Разделение по промежуткам
Продолжительность промежутка : 42 мс. (1,00 видеокадр)
Время предзагрузки промежутка : 500 мс.

pb.wtf



Скачать Драка в блоке 99 через торрент http://img14.lostpic.net/2018/12/06/d0aa3a04e2490eb25b5fec065a8434f8.png Скачать фильм Драка в блоке 99 через торрент бесплантно в хорошем качестве Описание: Бывший боксер и наркодилер Брэдли Томас пытался завязать с преступным прошлым, но оно затащило его обратно. Он с подельниками ... 9.7 10 7
Торрент: Зарегистрирован [2018-12-19 07:48] · скачан: 205 раз
Статус: √ проверено
Размер: 2.12 GB
Как cкачать? Как скачать Драка в блоке 99 через торрент | UTorrent

% Раздел Тема Автор DL S | L
Фильмы (Blu-ray, BD-Remux, HDDVD) [ 34.9 GB ] Драка в блоке 99 / Brawl in Cell Block 99 [2017 BD Remux 1080p] DVO+AVO+DUB [] bober100 Скачать
1 | 0
Фильмы [HD 720p, 1080p] (Хороший звук DUB, MVO) [ 5.8 GB ] Драка в блоке 99 / Brawl in Cell Block 99 [2017 BDRip 720p] MVO [Jaskier] bober100 Скачать
1 | 0
Ultra HD (UHD: 2K, 4K, 8K) — видео сверхвысокой чёткости [ 58.62 GB ] Драка в блоке 99 / Brawl in Cell Block 99 [2017 UHD BDRemux 2160p] [SDR] DUB + MVO [RecentFilms] + AVO [Дохалов] sheker187 Скачать
1 | 0
Фильмы 2017 [DVDrip, WEB-DLRip, HDrip] (DUB, MVO) [ 2.18 GB ] Драка в блоке 99 / Brawl in Cell Block 99 [2017 BDRip] - [] Twi7ter Скачать
1 | 0
Фильмы 2017 [DVDrip, WEB-DLRip, HDrip] (DUB, MVO) [ 1.46 GB ] Драка в блоке 99 / Brawl in Cell Block 99 [2017 BDRip] - [] Twi7ter Скачать
1 | 0
Фильмы 2017 [DVDrip, WEB-DLRip, HDrip] (DUB, MVO) [ 2.57 GB ] Драка в блоке 99 / Brawl in Cell Block 99 [2017 BDRip-AVC] Dub AVO - ExKinoRay Enigma2010 Скачать
2 | 0
Фильмы [HD 720p, 1080p] (Хороший звук DUB, MVO) [ 10.35 GB ] Драка в блоке 99 / Brawl in Cell Block 99 [2017 BDRip 1080p] DUB [] bober100 Скачать
2 | 0

28-11-2019 20:33  

Отключить всю рекламу на сайте

    Дорогой пользователь! Огромная просьба, поблагодарите релизера, оцените раздачу и оставьте свои комментарий, если Вы скачали Драка в блоке 99 через торрент бесплатно! Внесите свою лепту в развитие PiratBit!
    Комментировать посты могут только пользователи прошедшие не сложную регистрацию
    Показать сообщения:    

    Драка в блоке 99 через торрент
    Скачать бесплатно Драка в блоке 99
    Драка в блоке 99 скачать торрент
    Драка в блоке 99 смотреть онлайн
    Cкачать фильм Драка в блоке 99 бесплатно
    Драка в блоке 99 скачать торрент в хорошем качестве
    Драка в блоке 99 смотреть онлайн бесплатно в хорошем качестве


    Вы не можете начинать темы
    Вы не можете отвечать на сообщения
    Вы не можете редактировать свои сообщения
    Вы не можете удалять свои сообщения
    Вы не можете голосовать в опросах
    Вы не можете прикреплять файлы к сообщениям
    Вы можете скачивать файлы