новый адрес
Мега распродажа FORZA HORIZON 4 ULTIMATE+ВСЕ DLC+ОНЛАЙН всего за 499р. 349 руб. (супер цена). Внимание количество ограничено!!!

iTunes

1+1

iTunes

мы

iTunes

1

iTunes

Чернобыль

iTunes

Ральф против интернета

Лицензия

ПШазам

Лицензия

Игра престолов

Лицензия

30
pack

ВАЖНО

!!Акция!!

Alien_RageХит недели

RePack

Resident Evil 21

ИГРА 18+

pack

RePack

Metro:Exodus

!!Акция!!

Alien_Rage

RePack

fifa19

RePack

Assassins Creed: Odyssey

RePack

NEED FOR SPEED™ PAYBACK

3 сезон

9 сезон

Бесстыжие 9 сезон

Все сериалы

все сериалы на PB.wtf

RePack

FAR CRY 5
Ребята, катастрофически не хватает 1900р. для оплаты серверов за Октябрь (всвязи с блокировками трафик упал в 3 раза), 1-2р., выручайте.
  

День, когда исполняется 30 лет (Валентин Виноградов) [1962, СССР, мелодрама, VHSRip от AVP Studio] pb.wtf

День, когда исполняется 30 лет через торрент pb.wtf

Размер: 1.09 GB | Добавлен: 11 мес. назад | Торрент скачан:6 раз
Скачать  

19-12-2018 08:05 День, когда исполняется 30 лет Скачать торрент  

День, когда исполняется 30 лет
Страна: СССР
Производство: Беларусьфильм

Жанр: мелодрама
Год выпуска: 1962
Продолжительность: 01:23:59

Перевод: Не требуется
Cубтитры: нет
Оригинальная аудиодорожка: русский

Режиссер: Валентин Виноградов

В ролях:
Руфина Нифонтова, Николай Лебедев (II), Костя Семижен, Елена Строева, Юрий Шумаков, Людмила Карауш, Игорь Сретенский, Роман Филиппов...
Об актёрах подробней

Описание:
В этот день Светлане, художнице по росписи тканей, исполнилось тридцать лет. Она ждёт прихода друзей и близких. Но вот приходит человек, которого она не ждала. Это случилось несколько лет назад. Светлана была студенткой, Владимир - аспирантом. Они поженились, у них родился сын. Но вскоре Светлана поняла, что это замужество - ошибка молодости. Работа на комбинате помогла ей залечить боль ошибок. Потом она встретила Захара, летчика-испытателя. Он был человеком, который так же как и она, без остатка отдавал себя работе, жизни. Но оказалось, что счастье иногда приходится завоевывать в трудной борьбе с самой собой...

Исходник: VHS
Качество видео: VHSRip
Формат видео: AVI

Видео: 704x528 (4:3), 25,000 кадров/сек, XviD ~ 1657 kbps avg, 0.178 bit/pixel
Аудио: 48 kHz, Dolby Digital AC3 2.0, 192 kbps

Раздача от:
Общее
Полное имя : Den,kogda.ispolnyaetsya.30.let.1962.VHSRip_[New-team]_by_AVP_Studio.avi
Формат : AVI
Формат/Информация : Audio Video Interleave
Размер файла : 1,09 Гбайт
Продолжительность : 1 ч. 23 м.
Общий поток : 1859 Кбит/сек
Программа кодирования : VirtualDubModRus 1.5.10.2 (build 2540/release)
Библиотека кодирования : VirtualDubMod build 2540/release

Видео
Идентификатор : 0
Формат : MPEG-4 Visual
Профиль формата : Advanced Simple@L5
Настройки формата : BVOP1 / Custom Matrix
Параметр BVOP формата : 1
Параметр QPel формата : Нет
Параметр GMC формата : Без точки перехода
Параметр матрицы формата : Выборочная
Идентификатор кодека : XVID
Идентификатор кодека/Подсказка : XviD
Продолжительность : 1 ч. 23 м.
Битрейт : 1657 Кбит/сек
Ширина : 704 пикселя
Высота : 528 пикселей
Соотношение сторон : 4:3
Частота кадров : 25,000 кадров/сек
Цветовое пространство : YUV
Субдискретизация насыщенности : 4:2:0
Битовая глубина : 8 бит
Тип развёртки : Прогрессивная
Метод сжатия : С потерями
Бит/(Пиксели*Кадры) : 0.178
Размер потока : 995 Мбайт (89%)
Библиотека кодирования : XviD 73

Аудио
Идентификатор : 1
Формат : AC-3
Формат/Информация : Audio Coding 3
Коммерческое название : Dolby Digital
Идентификатор кодека : 2000
Продолжительность : 1 ч. 23 м.
Вид битрейта : Постоянный
Битрейт : 192 Кбит/сек
Каналы : 2 канала
Channel layout : L R
Частота : 48,0 КГц
Частота кадров : 31,250 кадров/сек (1536 SPF)
Битовая глубина : 16 бит
Метод сжатия : С потерями
Размер потока : 115 Мбайт (10%)
Выравнивание : Соединение по промежуткам
Продолжительность промежутка : 40 мс. (1,00 видеокадр)
Время предзагрузки промежутка : 512 мс
pb.wtf



Скачать День, когда исполняется 30 лет через торрент http://picplus.ru/img/1812/19/91f3018d.png Скачать фильм День, когда исполняется 30 лет через торрент бесплантно в хорошем качестве Описание:В этот день Светлане, художнице по росписи тканей, исполнилось тридцать лет. Она ждёт прихода друзей и близких. Но вот приходит ... 5 10 1
Info! Золотая раздача, скачанное не засчитывается.
Торрент: Зарегистрирован [2018-12-19 08:05] · скачан: 6 раз
Статус: √ проверено
Размер: 1.09 GB
Как cкачать? Как скачать День, когда исполняется 30 лет через торрент | qTorrent

% Раздел Тема Автор DL S | L
Кино СССР [ 1.09 GB ] День когда исполняется 30 лет [1962 СССР VHSRip-AVC от AVP Studio] AVP Studio Скачать
1 | 0


>> Регистрируемся здесь <<






Отзывы и комментарии о схеме читаем и пишем здесь: ---> Отзывы и комментарии о схеме

Новые благодарочки в телеграм довольных пользователей:
скриншот   скриншот   скриншот   скриншот   скриншот
    Дорогой пользователь! Огромная просьба, поблагодарите релизера, оцените раздачу и оставьте свои комментарий, если Вы скачали День, когда исполняется 30 лет через торрент бесплатно! Внесите свою лепту в развитие PiratBit!
    Комментировать посты могут только пользователи прошедшие не сложную регистрацию
    Показать сообщения:    

    День, когда исполняется 30 лет через торрент
    Скачать бесплатно День, когда исполняется 30 лет
    День, когда исполняется 30 лет скачать торрент
    День, когда исполняется 30 лет смотреть онлайн
    Cкачать фильм День, когда исполняется 30 лет бесплатно
    День, когда исполняется 30 лет скачать торрент в хорошем качестве
    День, когда исполняется 30 лет смотреть онлайн бесплатно в хорошем качестве


    Вы не можете начинать темы
    Вы не можете отвечать на сообщения
    Вы не можете редактировать свои сообщения
    Вы не можете удалять свои сообщения
    Вы не можете голосовать в опросах
    Вы не можете прикреплять файлы к сообщениям
    Вы можете скачивать файлы