новый адрес
Ссылка на приватное зеркало всего за 1$. Внимание количество ограничено!!!

iTunes

1+1

iTunes

мы

WEB-DL

1

iTunes

Чернобыль

iTunes

Ральф против интернета

Лицензия

ПШазам

Лицензия

Оно 2

Лицензия

30
pack

Вам бонус

ВАЖНО

!!Акция!!

Alien_RageХит недели

RePack

Resident Evil 21

ИГРА 18+

pack

RePack

jed

!!Акция!!

Alien_Rage

RePack

fifa19

RePack

Assassins Creed: Odyssey

RePack

NEED FOR SPEED™ PAYBACK

3 сезон

9 сезон

Бесстыжие 9 сезон

Все сериалы

все сериалы на PB.wtf

RePack

FAR CRY 5
Ребята, катастрофически не хватает 1900р. для оплаты серверов за Октябрь (всвязи с блокировками трафик упал в 3 раза), 1-2р., выручайте.
  

Голая Джульетта / Juliet, Naked (Джесси Перец) [2018, Драма, мелодрама, комедия, музыка, BDRip] MVO [Tunes] pb.wtf

Голая Джульетта через торрент pb.wtf

Размер: 1.46 GB | Добавлен: 11 мес. назад | Торрент скачан:77 раз
Скачать  

19-12-2018 13:49 Голая Джульетта Скачать торрент  

Голая Джульетта / Juliet, Naked Год выпуска: 2018
Страна: Великобритания, США
Жанр: Драма, мелодрама, комедия, музыка
Продолжительность: 01:37:34
Перевод: Профессиональный многоголосый | iTunes
Субтитры: русские (форс., полные), украинские (полные), английские (полные, SDH)

Режиссер: Джесси Перец

rating

В ролях:

Крис О’Дауд, Роуз Бирн, Александра Клэтворти, Лили Брэзир, Ко Ивагами, Лили Ньюмарк, Денис Гоф, Филип Дэвис, Итан Хоук и др.

Описание:

История о девушке по имени Энни, у которой неожиданно вспыхивает роман с бывшей музыкальной звездой Такером Кроу. Проблема в том, что она погрязла в многолетних и многострадальных отношениях с Дунканом — парнем, который в свою очередь преклоняется перед Кроу.

Качество: BDRip
Формат: AVI

Видео: Xvid 73, 720x304, ~1746 kbps, 23,976 fps
Аудио: русский, AC3, 5.1 ch, 48 kHz, 384 kbps | iTunes
скриншот   скриншот   скриншот   скриншот   скриншот  

General
Полное имя : F:TorrentJulietNakedBDRip.avi
Формат : AVI
Формат/Информация : Audio Video Interleave
Профиль формата : OpenDML
Размер файла : 1.46 GiB
Продолжительность : 1 h 37 min
Общий поток : 2 142 kb/s
Программа кодирования : XviD4PSP 6.0 / 54.27.101

Video
Идентификатор : 0
Формат : MPEG-4 Visual
Профиль формата : Advanced Simple@L5
Настройки формата : BVOP2 / Custom Matrix
Параметр BVOP формата : 2
Параметр QPel формата : No
Параметр GMC формата : No warppoints
Параметр матрицы формата : Custom
Идентификатор кодека : XVID
Идентификатор кодека/Подсказка : XviD
Продолжительность : 1 h 37 min
Битрейт : 1 746 kb/s
Ширина : 720 pixels
Высота : 304 pixels
Соотношение сторон : 2.35:1
Частота кадров : 23.976 (23976/1000) FPS
Цветовое пространство : YUV
Субдискретизация насыщенности : 4:2:0
Битовая глубина : 8 bits
Тип развёртки : Progressive
Метод сжатия : Lossy
Бит/(Пиксели*Кадры) : 0.333
Размер потока : 1.19 GiB (82%)
Библиотека кодирования : XviD 73

Audio
Идентификатор : 1
Формат : AC-3
Формат/Информация : Audio Coding 3
Идентификатор кодека : 2000
Продолжительность : 1 h 37 min
Вид битрейта : Constant
Битрейт : 384 kb/s
Каналы : 6 channels
Расположение каналов : Front: L C R, Side: L R, LFE
Частота : 48.0 kHz
Частота кадров : 31.250 FPS (1536 SPF)
Битовая глубина : 16 bits
Метод сжатия : Lossy
Размер потока : 268 MiB (18%)
Выравнивание : Aligned on interleaves
Продолжительность промежутка : 32 ms (0.77 video frame)

pb.wtf



Скачать Голая Джульетта через торрент http://lostpix.com/thumbs/2018-12/19/gcgltvgpxcniq6u4gk0i5newr.png Скачать фильм Голая Джульетта через торрент бесплантно в хорошем качестве Описание: История о девушке по имени Энни, у которой неожиданно вспыхивает роман с бывшей музыкальной звездой Такером Кроу. Проблема в том, ... 8.2 10 5
Торрент: Зарегистрирован [2018-12-19 13:49] · скачан: 77 раз
Статус: √ проверено
Размер: 1.46 GB
Как cкачать? Как скачать Голая Джульетта через торрент | qTorrent

% Раздел Тема Автор DL S | L
Фильмы 2018 [DVDrip, WEB-DLRip, HDrip] (DUB, MVO) [ 1.42 GB ] Голая Джульетта / Juliet Naked [2018 музыка BDRip] MVO [ / Tunes] Twi7ter Скачать
3 | 0
Фильмы 2018 [DVDrip, WEB-DLRip, HDrip] (DUB, MVO) [ 712 MB ] Голая Джульетта / Juliet Naked [2018 музыка HDRip многоголосый закадровый ""] coc900 Скачать
1 | 0
Фильмы 2018 [DVDrip, WEB-DLRip, HDrip] (DUB, MVO) [ 1.79 GB ] Голая Джульетта / Juliet Naked [2018 музыка BDRip-AVC] MVO [Tunes] bober100 Скачать
1 | 0
Фильмы [HD 720p, 1080p] (Хороший звук DUB, MVO) [ 3.62 GB ] Голая Джульетта / Juliet Naked [2018 музыка BDRip 720p] MVO [Tunes] bober100 Скачать
1 | 0
Фильмы [HD 720p, 1080p] (Хороший звук DUB, MVO) [ 7 GB ] Голая Джульетта / Juliet Naked [2018 музыка BDRip 1080p] MVO [Tunes] bober100 Скачать
1 | 0

28-11-2019 20:33  

Отключить всю рекламу на сайте

    Дорогой пользователь! Огромная просьба, поблагодарите релизера, оцените раздачу и оставьте свои комментарий, если Вы скачали Голая Джульетта через торрент бесплатно! Внесите свою лепту в развитие PiratBit!
    Комментировать посты могут только пользователи прошедшие не сложную регистрацию
    Показать сообщения:    

    Голая Джульетта через торрент
    Скачать бесплатно Голая Джульетта
    Голая Джульетта скачать торрент
    Голая Джульетта смотреть онлайн
    Cкачать фильм Голая Джульетта бесплатно
    Голая Джульетта скачать торрент в хорошем качестве
    Голая Джульетта смотреть онлайн бесплатно в хорошем качестве


    Вы не можете начинать темы
    Вы не можете отвечать на сообщения
    Вы не можете редактировать свои сообщения
    Вы не можете удалять свои сообщения
    Вы не можете голосовать в опросах
    Вы не можете прикреплять файлы к сообщениям
    Вы можете скачивать файлы