Ссылка на приватное зеркало всего за 1$. Внимание количество ограничено!!!

OK

1+1

iTunes

мы

OK

1

WEB-DLRip

Джокер

Пифагор

Ведьмак / The Witcher сериал

iTunes

ПШазам

ОК

Оно 2

iTunes

30
pack

Вам бонус

ВАЖНО

!!Акция!!

Alien_RageХит недели

RePack

Resident Evil 21

ИГРА 18+

pack

RePack

jed

RePack

fifa19

RePack

Assassins Creed: Odyssey

RePack

NEED FOR SPEED™ PAYBACK

4 сезон

9 сезон

Бесстыжие 9 сезон

Все сериалы

все сериалы на PB.wtf

RePack

FAR CRY 5
  

Голая Джульетта / Juliet, Naked (Джесси Перец) [2018, Драма, мелодрама, комедия, музыка, BDRip 720p] MVO [Tunes] pb.wtf

Голая Джульетта через торрент pb.wtf

Размер: 3.62 GB | Добавлен: 1 год 1 мес. назад | Торрент скачан:100 раз
Скачать  

19-12-2018 13:59 Голая Джульетта Скачать торрент  

Голая Джульетта / Juliet, Naked Год выпуска: 2018
Страна: Великобритания, США
Жанр: Драма, мелодрама, комедия, музыка
Продолжительность: 01:37:34
Перевод: Профессиональный многоголосый | iTunes
Субтитры: русские (форс., полные), украинские (полные), английские (полные, SDH)

Режиссер: Джесси Перец

rating

В ролях:

Крис О’Дауд, Роуз Бирн, Александра Клэтворти, Лили Брэзир, Ко Ивагами, Лили Ньюмарк, Денис Гоф, Филип Дэвис, Итан Хоук и др.

Описание:

История о девушке по имени Энни, у которой неожиданно вспыхивает роман с бывшей музыкальной звездой Такером Кроу. Проблема в том, что она погрязла в многолетних и многострадальных отношениях с Дунканом — парнем, который в свою очередь преклоняется перед Кроу.

Качество: BDRip 720p
Формат: MKV

Видео: MPEG-4 AVC, 1280x536, 4485 kbps, 23,976 fps
Аудио#1: русский, AC3, 5.1 ch, 48 kHz, 384 kbps | iTunes
Аудио#2: английский, AC3, 5.1 ch, 48 kHz, 448 kbps | оригинал
скриншот   скриншот   скриншот   скриншот   скриншот  

General
Unique ID : 188840147639344819662806218162928919575 (0x8E114A1CF1056E54A4F3452A1350A417)
Complete name : F:TorrentJulietNakedBDRip720p.mkv
Format : Matroska
Format version : Version 4 / Version 2
File size : 3.62 GiB
Duration : 1 h 37 min
Overall bit rate : 5 315 kb/s
Encoded date : UTC 2018-12-18 19:46:05
Writing application : mkvmerge v9.5.0 ('Quiet Fire') 64bit
Writing library : libebml v1.3.4 + libmatroska v1.4.5

Video
ID : 1
Format : AVC
Format/Info : Advanced Video Codec
Format profile : High@L4.1
Format settings : CABAC / 12 Ref Frames
Format settings, CABAC : Yes
Format settings, RefFrames : 12 frames
Codec ID : V_MPEG4/ISO/AVC
Duration : 1 h 37 min
Bit rate : 4 485 kb/s
Width : 1 280 pixels
Height : 536 pixels
Display aspect ratio : 2.40:1
Frame rate mode : Constant
Frame rate : 23.976 (24000/1001) FPS
Color space : YUV
Chroma subsampling : 4:2:0
Bit depth : 8 bits
Scan type : Progressive
Bits/(Pixel*Frame) : 0.273
Stream size : 3.05 GiB (84%)
Writing library : x264 core 157 r2935M 545de2f
Encoding settings : cabac=1 / ref=12 / deblock=1:-1:-1 / analyse=0x3:0x133 / me=umh / subme=11 / psy=1 / psy_rd=1.00:0.00 / mixed_ref=1 / me_range=32 / chroma_me=1 / trellis=2 / 8x8dct=1 / cqm=0 / deadzone=21,11 / fast_pskip=0 / chroma_qp_offset=-2 / threads=9 / lookahead_threads=2 / sliced_threads=0 / nr=0 / decimate=0 / interlaced=0 / bluray_compat=0 / constrained_intra=0 / bframes=12 / b_pyramid=2 / b_adapt=2 / b_bias=0 / direct=3 / weightb=1 / open_gop=0 / weightp=2 / keyint=240 / keyint_min=24 / scenecut=40 / intra_refresh=0 / rc_lookahead=120 / rc=2pass / mbtree=0 / bitrate=4485 / ratetol=1.0 / qcomp=0.70 / qpmin=0 / qpmax=69 / qpstep=4 / cplxblur=20.0 / qblur=0.5 / vbv_maxrate=50000 / vbv_bufsize=62500 / nal_hrd=none / filler=0 / ip_ratio=1.40 / pb_ratio=1.30 / aq=3:0.80
Language : English
Default : Yes
Forced : No

Audio #1
ID : 2
Format : AC-3
Format/Info : Audio Coding 3
Codec ID : A_AC3
Duration : 1 h 37 min
Bit rate mode : Constant
Bit rate : 384 kb/s
Channel(s) : 6 channels
Channel positions : Front: L C R, Side: L R, LFE
Sampling rate : 48.0 kHz
Frame rate : 31.250 FPS (1536 SPF)
Bit depth : 16 bits
Compression mode : Lossy
Stream size : 268 MiB (7%)
Language : Russian
Default : Yes
Forced : No

Audio #2
ID : 3
Format : AC-3
Format/Info : Audio Coding 3
Codec ID : A_AC3
Duration : 1 h 37 min
Bit rate mode : Constant
Bit rate : 448 kb/s
Channel(s) : 6 channels
Channel positions : Front: L C R, Side: L R, LFE
Sampling rate : 48.0 kHz
Frame rate : 31.250 FPS (1536 SPF)
Bit depth : 16 bits
Compression mode : Lossy
Stream size : 313 MiB (8%)
Language : English
Default : No
Forced : No

Text #1
ID : 4
Format : UTF-8
Codec ID : S_TEXT/UTF8
Codec ID/Info : UTF-8 Plain Text
Duration : 1 h 32 min
Bit rate : 6 b/s
Count of elements : 76
Stream size : 4.19 KiB (0%)
Title : rusForced
Language : Russian
Default : Yes
Forced : Yes

Text #2
ID : 5
Format : UTF-8
Codec ID : S_TEXT/UTF8
Codec ID/Info : UTF-8 Plain Text
Duration : 1 h 32 min
Bit rate : 130 b/s
Count of elements : 1707
Stream size : 88.2 KiB (0%)
Title : rusFull
Language : Russian
Default : No
Forced : No

Text #3
ID : 6
Format : UTF-8
Codec ID : S_TEXT/UTF8
Codec ID/Info : UTF-8 Plain Text
Duration : 1 h 32 min
Bit rate : 153 b/s
Count of elements : 1706
Stream size : 104 KiB (0%)
Title : ukrFull
Language : Ukrainian
Default : No
Forced : No

Text #4
ID : 7
Format : UTF-8
Codec ID : S_TEXT/UTF8
Codec ID/Info : UTF-8 Plain Text
Duration : 1 h 32 min
Bit rate : 90 b/s
Count of elements : 1634
Stream size : 61.4 KiB (0%)
Title : engFull
Language : English
Default : No
Forced : No

Text #5
ID : 8
Format : UTF-8
Codec ID : S_TEXT/UTF8
Codec ID/Info : UTF-8 Plain Text
Duration : 1 h 36 min
Bit rate : 102 b/s
Count of elements : 1921
Stream size : 72.7 KiB (0%)
Title : engSDH
Language : English
Default : No
Forced : No

Menu
00:00:00.000 : :Chapter 01
00:06:39.482 : :Chapter 02
00:12:06.559 : :Chapter 03
00:19:18.532 : :Chapter 04
00:24:23.753 : :Chapter 05
00:30:53.560 : :Chapter 06
00:36:09.167 : :Chapter 07
00:42:20.246 : :Chapter 08
00:48:10.012 : :Chapter 09
00:54:03.698 : :Chapter 10
00:59:37.699 : :Chapter 11
01:06:02.041 : :Chapter 12
01:12:52.117 : :Chapter 13
01:20:53.181 : :Chapter 14
01:24:25.727 : :Chapter 15
01:29:59.519 : :Chapter 16

pb.wtf



Скачать Голая Джульетта через торрент http://lostpix.com/thumbs/2018-12/19/gcgltvgpxcniq6u4gk0i5newr.png Скачать фильм Голая Джульетта через торрент бесплантно в хорошем качестве Описание: История о девушке по имени Энни, у которой неожиданно вспыхивает роман с бывшей музыкальной звездой Такером Кроу. Проблема в том, ... 10 10 3
Торрент: Зарегистрирован [2018-12-19 13:59] · скачан: 100 раз
Статус: √ проверено
Размер: 3.62 GB
Как cкачать? Как скачать Голая Джульетта через торрент | qTorrent

% Раздел Тема Автор DL S | L
Фильмы 2018 [DVDrip, WEB-DLRip, HDrip] (DUB, MVO) [ 1.42 GB ] Голая Джульетта / Juliet Naked [2018 музыка BDRip] MVO [ / Tunes] Twi7ter Скачать
5 | 1
Фильмы 2018 [DVDrip, WEB-DLRip, HDrip] (DUB, MVO) [ 712 MB ] Голая Джульетта / Juliet Naked [2018 музыка HDRip многоголосый закадровый ""] coc900 Скачать
1 | 0
Фильмы 2018 [DVDrip, WEB-DLRip, HDrip] (DUB, MVO) [ 1.79 GB ] Голая Джульетта / Juliet Naked [2018 музыка BDRip-AVC] MVO [Tunes] bober100 Скачать
1 | 0
Фильмы 2018 [DVDrip, WEB-DLRip, HDrip] (DUB, MVO) [ 1.46 GB ] Голая Джульетта / Juliet Naked [2018 музыка BDRip] MVO [Tunes] bober100 Скачать
1 | 0
Фильмы [HD 720p, 1080p] (Хороший звук DUB, MVO) [ 7 GB ] Голая Джульетта / Juliet Naked [2018 музыка BDRip 1080p] MVO [Tunes] bober100 Скачать
1 | 0

28-11-2019 20:33  

Отключить всю рекламу на сайте

    Дорогой пользователь! Огромная просьба, поблагодарите релизера, оцените раздачу и оставьте свои комментарий, если Вы скачали Голая Джульетта через торрент бесплатно! Внесите свою лепту в развитие PiratBit!
    Комментировать посты могут только пользователи прошедшие не сложную регистрацию
    Показать сообщения:    

    Голая Джульетта через торрент
    Скачать бесплатно Голая Джульетта
    Голая Джульетта скачать торрент
    Голая Джульетта смотреть онлайн
    Cкачать фильм Голая Джульетта бесплатно
    Голая Джульетта скачать торрент в хорошем качестве
    Голая Джульетта смотреть онлайн бесплатно в хорошем качестве


    Вы не можете начинать темы
    Вы не можете отвечать на сообщения
    Вы не можете редактировать свои сообщения
    Вы не можете удалять свои сообщения
    Вы не можете голосовать в опросах
    Вы не можете прикреплять файлы к сообщениям
    Вы можете скачивать файлы