новый адрес
Ссылка на приватное зеркало всего за 1$. Внимание количество ограничено!!!

iTunes

1+1

iTunes

мы

WEB-DL

1

iTunes

Чернобыль

iTunes

Ральф против интернета

Лицензия

ПШазам

Лицензия

Оно 2

Лицензия

30
pack

Вам бонус

ВАЖНО

!!Акция!!

Alien_RageХит недели

RePack

Resident Evil 21

ИГРА 18+

pack

RePack

jed

!!Акция!!

Alien_Rage

RePack

fifa19

RePack

Assassins Creed: Odyssey

RePack

NEED FOR SPEED™ PAYBACK

3 сезон

9 сезон

Бесстыжие 9 сезон

Все сериалы

все сериалы на PB.wtf

RePack

FAR CRY 5
Ребята, катастрофически не хватает 1900р. для оплаты серверов за Октябрь (всвязи с блокировками трафик упал в 3 раза), 1-2р., выручайте.
  

Голая Джульетта / Juliet, Naked (Джесси Перец) [2018, Драма, мелодрама, комедия, музыка, BDRip-AVC] MVO [Tunes] pb.wtf

Голая Джульетта через торрент pb.wtf

Раздают: 1 [ 0 KB/s ]
Размер: 1.79 GB | Добавлен: 11 мес. назад | Торрент скачан:107 раз
Скачать  

19-12-2018 14:31 Голая Джульетта Скачать торрент  

Голая Джульетта / Juliet, Naked Год выпуска: 2018
Страна: Великобритания, США
Жанр: Драма, мелодрама, комедия, музыка
Продолжительность: 01:37:34
Перевод: Профессиональный многоголосый | iTunes
Субтитры: Русские (форс., полные), Английские (полные, SDH)

Режиссер: Джесси Перец

rating

В ролях:

Крис О’Дауд, Роуз Бирн, Александра Клэтворти, Лили Брэзир, Ко Ивагами, Лили Ньюмарк, Денис Гоф, Филип Дэвис, Итан Хоук и др.

Описание:

История о девушке по имени Энни, у которой неожиданно вспыхивает роман с бывшей музыкальной звездой Такером Кроу. Проблема в том, что она погрязла в многолетних и многострадальных отношениях с Дунканом — парнем, который в свою очередь преклоняется перед Кроу.

Качество: BDRip-AVC
Формат: MKV

Видео: 1024x428 (2.40:1), 23,976 fps, x264 ~1 792 kbps avg, 0.171 bit/pixel
Аудио#1: 48 kHz, AC3 Dolby Digital, 3/2 (L,C,R,l,r) + LFE ch, ~384.00 kbps avg | RUS (iTunes)
Аудио#2: 48 kHz, AC3 Dolby Digital, 3/2 (L,C,R,l,r) + LFE ch, ~448.00 kbps avg | ENG
скриншот  скриншот  скриншот  скриншот  скриншот  

Общее
Уникальный идентификатор : 205913757274625279423281018899394002279 (0x9AE98C0F60BFFF42D6F3CC321128FD67)
Полное имя : F:\OlLanDGroup\Juliet.Naked.2018.BDRip(AVC).OlLanDGroup.mkv
Формат : Matroska
Версия формата : Version 4 / Version 2
Размер файла : 1,79 Гбайт
Продолжительность : 1 ч. 37 м.
Общий поток : 2626 Кбит/сек
Название фильма : Juliet.Naked.2018 #TorpedoUK#
Дата кодирования : UTC 2018-12-19 14:20:30
Программа кодирования : mkvmerge v29.0.0 ('Like It Or Not') 64-bit
Библиотека кодирования : libebml v1.3.6 + libmatroska v1.4.9

Видео
Идентификатор : 1
Формат : AVC
Формат/Информация : Advanced Video Codec
Профиль формата : High@L4.1
Параметр CABAC формата : Да
Параметр ReFrames формата : 10 кадров
Идентификатор кодека : V_MPEG4/ISO/AVC
Продолжительность : 1 ч. 37 м.
Битрейт : 1792 Кбит/сек
Ширина : 1024 пикселя
Высота : 428 пикселей
Соотношение сторон : 2,40:1
Режим частоты кадров : Постоянный
Частота кадров : 23,976 (24000/1001) кадра/сек
Цветовое пространство : YUV
Субдискретизация насыщенности : 4:2:0
Битовая глубина : 8 бит
Тип развёртки : Прогрессивная
Бит/(Пиксели*Кадры) : 0.171
Размер потока : 1,22 Гбайт (68%)
Библиотека кодирования : x264 core 146 r2538 121396c
Настройки программы : cabac=1 / ref=10 / deblock=1:-3:-3 / analyse=0x3:0x113 / me=umh / subme=11 / psy=1 / psy_rd=1.00:0.03 / mixed_ref=1 / me_range=48 / chroma_me=1 / trellis=2 / 8x8dct=1 / cqm=0 / deadzone=21,11 / fast_pskip=1 / chroma_qp_offset=-3 / threads=6 / lookahead_threads=1 / sliced_threads=0 / nr=0 / decimate=1 / interlaced=0 / bluray_compat=0 / constrained_intra=0 / bframes=11 / b_pyramid=2 / b_adapt=2 / b_bias=0 / direct=3 / weightb=1 / open_gop=0 / weightp=2 / keyint=240 / keyint_min=23 / scenecut=40 / intra_refresh=0 / rc_lookahead=40 / rc=2pass / mbtree=0 / bitrate=1792 / ratetol=1.0 / qcomp=0.60 / qpmin=0 / qpmax=69 / qpstep=4 / cplxblur=20.0 / qblur=0.5 / vbv_maxrate=50000 / vbv_bufsize=62500 / nal_hrd=none / filler=0 / ip_ratio=1.40 / pb_ratio=1.30 / aq=1:1.00
Язык : English
Default : Да
Forced : Нет

Аудио #1
Идентификатор : 2
Формат : AC-3
Формат/Информация : Audio Coding 3
Расширение режима : CM (complete main)
Параметр Endianness формата : Big
Идентификатор кодека : A_AC3
Продолжительность : 1 ч. 37 м.
Вид битрейта : Постоянный
Битрейт : 384 Кбит/сек
Каналы : 6 каналов
Расположение каналов : Front: L C R, Side: L R, LFE
Частота : 48,0 КГц
Частота кадров : 31,250 кадров/сек (1536 spf)
Битовая глубина : 16 бит
Метод сжатия : С потерями
Размер потока : 268 Мбайт (15%)
Заголовок : MVO [iTunes]
Язык : Russian
Default : Да
Forced : Нет

Аудио #2
Идентификатор : 3
Формат : AC-3
Формат/Информация : Audio Coding 3
Расширение режима : CM (complete main)
Параметр Endianness формата : Big
Идентификатор кодека : A_AC3
Продолжительность : 1 ч. 37 м.
Вид битрейта : Постоянный
Битрейт : 448 Кбит/сек
Каналы : 6 каналов
Расположение каналов : Front: L C R, Side: L R, LFE
Частота : 48,0 КГц
Частота кадров : 31,250 кадров/сек (1536 spf)
Битовая глубина : 16 бит
Метод сжатия : С потерями
Размер потока : 313 Мбайт (17%)
Заголовок : [Original]
Язык : English
Default : Нет
Forced : Нет

Текст #1
Идентификатор : 4
Формат : UTF-8
Идентификатор кодека : S_TEXT/UTF8
Идентификатор кодека/Информация : UTF-8 Plain Text
Продолжительность : 1 ч. 32 м.
Битрейт : 6 бит/сек
Count of elements : 76
Размер потока : 4,19 Кбайт (0%)
Заголовок : Forced
Язык : Russian
Default : Да
Forced : Нет

Текст #2
Идентификатор : 5
Формат : UTF-8
Идентификатор кодека : S_TEXT/UTF8
Идентификатор кодека/Информация : UTF-8 Plain Text
Продолжительность : 1 ч. 32 м.
Битрейт : 130 бит/сек
Count of elements : 1707
Размер потока : 88,2 Кбайт (0%)
Заголовок : Full
Язык : Russian
Default : Нет
Forced : Нет

Текст #3
Идентификатор : 6
Формат : UTF-8
Идентификатор кодека : S_TEXT/UTF8
Идентификатор кодека/Информация : UTF-8 Plain Text
Продолжительность : 1 ч. 32 м.
Битрейт : 90 бит/сек
Count of elements : 1634
Размер потока : 61,4 Кбайт (0%)
Заголовок : Full
Язык : English
Default : Нет
Forced : Нет

Текст #4
Идентификатор : 7
Формат : UTF-8
Идентификатор кодека : S_TEXT/UTF8
Идентификатор кодека/Информация : UTF-8 Plain Text
Продолжительность : 1 ч. 36 м.
Битрейт : 102 бит/сек
Count of elements : 1921
Размер потока : 72,7 Кбайт (0%)
Заголовок : SDH
Язык : English
Default : Нет
Forced : Нет

Меню
00:00:00.000 : :Chapter 01
00:06:39.482 : :Chapter 02
00:12:06.559 : :Chapter 03
00:19:18.532 : :Chapter 04
00:24:23.753 : :Chapter 05
00:30:53.560 : :Chapter 06
00:36:09.167 : :Chapter 07
00:42:20.246 : :Chapter 08
00:48:10.012 : :Chapter 09
00:54:03.698 : :Chapter 10
00:59:37.699 : :Chapter 11
01:06:02.041 : :Chapter 12
01:12:52.117 : :Chapter 13
01:20:53.181 : :Chapter 14
01:24:25.727 : :Chapter 15
01:29:59.519 : :Chapter 16

pb.wtf



Скачать Голая Джульетта через торрент http://img15.lostpic.net/2018/12/19/9b6c307a913b87dda1ea2346736b7871.jpg Скачать фильм Голая Джульетта через торрент бесплантно в хорошем качестве Описание: История о девушке по имени Энни, у которой неожиданно вспыхивает роман с бывшей музыкальной звездой Такером Кроу. Проблема в том, ... 10 10 4
Торрент: Зарегистрирован [2018-12-19 14:31] · скачан: 107 раз
Статус: √ проверено
Размер: 1.79 GB
Как cкачать? Как скачать Голая Джульетта через торрент | qTorrent

% Раздел Тема Автор DL S | L
Фильмы 2018 [DVDrip, WEB-DLRip, HDrip] (DUB, MVO) [ 1.42 GB ] Голая Джульетта / Juliet Naked [2018 музыка BDRip] MVO [ / Tunes] Twi7ter Скачать
7 | 0
Фильмы 2018 [DVDrip, WEB-DLRip, HDrip] (DUB, MVO) [ 712 MB ] Голая Джульетта / Juliet Naked [2018 музыка HDRip многоголосый закадровый ""] coc900 Скачать
2 | 0
Фильмы [HD 720p, 1080p] (Хороший звук DUB, MVO) [ 3.62 GB ] Голая Джульетта / Juliet Naked [2018 музыка BDRip 720p] MVO [Tunes] bober100 Скачать
3 | 0
Фильмы 2018 [DVDrip, WEB-DLRip, HDrip] (DUB, MVO) [ 1.46 GB ] Голая Джульетта / Juliet Naked [2018 музыка BDRip] MVO [Tunes] bober100 Скачать
1 | 0
Фильмы [HD 720p, 1080p] (Хороший звук DUB, MVO) [ 7 GB ] Голая Джульетта / Juliet Naked [2018 музыка BDRip 1080p] MVO [Tunes] bober100 Скачать
1 | 0

28-11-2019 20:33  

Отключить всю рекламу на сайте

    Дорогой пользователь! Огромная просьба, поблагодарите релизера, оцените раздачу и оставьте свои комментарий, если Вы скачали Голая Джульетта через торрент бесплатно! Внесите свою лепту в развитие PiratBit!
    Комментировать посты могут только пользователи прошедшие не сложную регистрацию
    Показать сообщения:    

    Голая Джульетта через торрент
    Скачать бесплатно Голая Джульетта
    Голая Джульетта скачать торрент
    Голая Джульетта смотреть онлайн
    Cкачать фильм Голая Джульетта бесплатно
    Голая Джульетта скачать торрент в хорошем качестве
    Голая Джульетта смотреть онлайн бесплатно в хорошем качестве


    Вы не можете начинать темы
    Вы не можете отвечать на сообщения
    Вы не можете редактировать свои сообщения
    Вы не можете удалять свои сообщения
    Вы не можете голосовать в опросах
    Вы не можете прикреплять файлы к сообщениям
    Вы можете скачивать файлы