Ссылка на приватное зеркало нашего сайта всего за 1$. Внимание количество ограничено!!!

2 сезон

iTunes

1 сезон

1

2 сезон

2 сезон

iTunes

1 сезон

RePack

30

Новинка

ВАЖНО

ИГРА 18+

pack

RePack

MK11
pack

Забери бонус

RePack

jed

!!Акция!!

Alien_Rage

RePack

fifa19

RePack

Assassins Creed: Odyssey

RePack

NEED FOR SPEED™ PAYBACK

4 сезон

9 сезон

Бесстыжие 9 сезон

Все сериалы

все сериалы на PB.wtf

RePack

FAR CRY 5
  

В тылу врага 3: Колумбия / Behind Enemy Lines: Colombia (Тим Мэтисон) [2009, боевик, триллер, WEB-DL 1080p] 2xMVO+DVO pb.wtf

В тылу врага 3: Колумбия через торрент pb.wtf

Размер: 10.07 GB | Добавлен: 1 год 11 мес. назад | Торрент скачан:17 раз
Скачать  

19-12-2018 19:51 В тылу врага 3: Колумбия Скачать торрент  

В тылу врага 3: Колумбия / Behind Enemy Lines: Colombia Год выпуска: 2009
Страна: США
Жанр: боевик, триллер
Продолжительность: 01:33:31
Перевод:

- Профессиональный (многоголосый, закадровый) | R5 «Двадцатый Век Фокс СНГ»
- Профессиональный (многоголосый, закадровый) | Первый канал
- Любительский (двуголосый, закадровый) | InterFilm

Субтитры: Русские, английские

Режиссер: Тим Мэтисон

rating

В ролях:

Джо Манганьелло, Кен Андерсон, Чэннон Роу, Янси Ариас, Крис Дж. Джонсон, Энтони Матос, Кит Дэвид, Дженнис Фуэнтес, Стивен Бауэр, Тим Мэтисон

Описание:

В течение последних 50-ти лет в Колумбии постоянно идет война нелегальных банд формирований с колумбийской армией, война от которой страдают мирные жители. Преступники называющие себя революционерами не гнушаются ни бомбардировками, ни террористическими актами, ни похищением и убийством людей. Армия революционеров неплохо вооружилась на заработке от нелегальной наркоторговли и колумбийское правительство не в силах самостоятельно справиться с этой проблемой, вынуждено просить помощи у других стран. США отправляет в Колумбию отряд спецназа ВМФ для выполнения особо секретной миссии по освобождению заложников. Любой неверный шаг и невыполненное задание грозит обострением мировых отношений…

Качество: WEB-DL 1080p
Формат: MKV

Видео: 1920x1080, 13400 kbps, 23,976 fps
Аудио#1: AC-3, 6 ch, 384 kbps (Rus) - MVO R5 «Двадцатый Век Фокс СНГ»
Аудио#2: AC-3, 2 ch, 192 kbps (Rus) - MVO Первый канал
Аудио#3: AC-3, 6 ch, 448 kbps (Rus) - DVOL InterFilm
Аудио#4: AC-3, 6 ch, 448 kbps (Eng) - DVD «Двадцатый Век Фокс СНГ»
Аудио#5: AC-3, 2 ch, 224 kbps (Eng) - AMZN
скриншот  скриншот  скриншот  скриншот  скриншот  

Общее
Уникальный идентификатор : 201518135043642434095938888818841210493 (0x979AFB26DD17E6A8BD3F070305F9CE7D)
Полное имя : В тылу врага 3 Колумбия (Behind Enemy Lines Colombia) 2009 WEBRip 1080p.mkv
Формат : Matroska
Версия формата : Version 2
Размер файла : 10,1 Гбайт
Продолжительность : 1 ч. 33 м.
Режим общего битрейта : Переменный
Общий поток : 15,4 Мбит/сек
Дата кодирования : UTC 2018-12-18 00:51:04
Программа кодирования : mkvmerge v4.0.0 ('The Stars were mine') сборка от Jun 6 2010 16:18:42
Библиотека кодирования : libebml v1.0.0 + libmatroska v1.0.0

Видео
Идентификатор : 1
Формат : AVC
Формат/Информация : Advanced Video Codec
Профиль формата : High@L4
Параметр CABAC формата : Да
Параметр ReFrames формата : 4 кадра
Идентификатор кодека : V_MPEG4/ISO/AVC
Продолжительность : 1 ч. 33 м.
Вид битрейта : Переменный
Битрейт : 13,4 Мбит/сек
Максимальный битрейт : 15,0 Мбит/сек
Ширина : 1920 пикселей
Высота : 1080 пикселей
Соотношение сторон : 16:9
Режим частоты кадров : Постоянный
Частота кадров : 23,976 (24000/1001) кадра/сек
Цветовое пространство : YUV
Субдискретизация насыщенности : 4:2:0
Битовая глубина : 8 бит
Тип развёртки : Прогрессивная
Бит/(Пиксели*Кадры) : 0.270
Размер потока : 8,76 Гбайт (87%)
Библиотека кодирования : x264 core 148 r2623 d5b2374
Настройки программы : cabac=1 / ref=4 / deblock=1:-1:-1 / analyse=0x3:0x133 / me=umh / subme=9 / psy=1 / psy_rd=1.00:0.15 / mixed_ref=1 / me_range=24 / chroma_me=1 / trellis=2 / 8x8dct=1 / cqm=0 / deadzone=21,11 / fast_pskip=1 / chroma_qp_offset=-3 / threads=34 / lookahead_threads=5 / sliced_threads=0 / nr=150 / decimate=1 / interlaced=0 / bluray_compat=0 / constrained_intra=0 / bframes=8 / b_pyramid=2 / b_adapt=2 / b_bias=0 / direct=3 / weightb=1 / open_gop=0 / weightp=2 / keyint=120 / keyint_min=61 / scenecut=0 / intra_refresh=0 / rc_lookahead=120 / rc=crf / mbtree=1 / crf=18.0 / qcomp=0.60 / qpmin=0 / qpmax=69 / qpstep=4 / vbv_maxrate=15000 / vbv_bufsize=31250 / crf_max=0.0 / nal_hrd=vbr / filler=0 / ip_ratio=1.40 / aq=3:1.00
Язык : English
Default : Нет
Forced : Нет
Цветовой диапазон : Limited
Основные цвета : BT.709
Характеристики трансфера : BT.709
Коэффициенты матрицы : BT.709

Аудио #1
Идентификатор : 2
Формат : AC-3
Формат/Информация : Audio Coding 3
Расширение режима : CM (complete main)
Параметр Endianness формата : Big
Идентификатор кодека : A_AC3
Продолжительность : 1 ч. 33 м.
Вид битрейта : Постоянный
Битрейт : 384 Кбит/сек
Каналы : 6 каналов
Расположение каналов : Front: L C R, Side: L R, LFE
Частота : 48,0 КГц
Частота кадров : 31,250 кадров/сек (1536 spf)
Метод сжатия : С потерями
Размер потока : 257 Мбайт (2%)
Заголовок : MVO R5 «Двадцатый Век Фокс СНГ»
Язык : Russian
Default : Нет
Forced : Нет

Аудио #2
Идентификатор : 3
Формат : AC-3
Формат/Информация : Audio Coding 3
Расширение режима : CM (complete main)
Параметр Endianness формата : Big
Идентификатор кодека : A_AC3
Продолжительность : 1 ч. 33 м.
Вид битрейта : Постоянный
Битрейт : 192 Кбит/сек
Каналы : 2 канала
Расположение каналов : Front: L R
Частота : 48,0 КГц
Частота кадров : 31,250 кадров/сек (1536 spf)
Метод сжатия : С потерями
Размер потока : 128 Мбайт (1%)
Заголовок : MVO Первый канал
Язык : Russian
Default : Нет
Forced : Нет

Аудио #3
Идентификатор : 4
Формат : AC-3
Формат/Информация : Audio Coding 3
Расширение режима : CM (complete main)
Параметр Endianness формата : Big
Идентификатор кодека : A_AC3
Продолжительность : 1 ч. 33 м.
Вид битрейта : Постоянный
Битрейт : 448 Кбит/сек
Каналы : 6 каналов
Расположение каналов : Front: L C R, Side: L R, LFE
Частота : 48,0 КГц
Частота кадров : 31,250 кадров/сек (1536 spf)
Метод сжатия : С потерями
Размер потока : 300 Мбайт (3%)
Заголовок : DVOL InterFilm
Язык : Russian
Default : Нет
Forced : Нет

Аудио #4
Идентификатор : 5
Формат : AC-3
Формат/Информация : Audio Coding 3
Расширение режима : CM (complete main)
Параметр Endianness формата : Big
Идентификатор кодека : A_AC3
Продолжительность : 1 ч. 33 м.
Вид битрейта : Постоянный
Битрейт : 448 Кбит/сек
Каналы : 6 каналов
Расположение каналов : Front: L C R, Side: L R, LFE
Частота : 48,0 КГц
Частота кадров : 31,250 кадров/сек (1536 spf)
Метод сжатия : С потерями
Размер потока : 300 Мбайт (3%)
Заголовок : DVD
Язык : English
Default : Нет
Forced : Нет

Аудио #5
Идентификатор : 6
Формат : AC-3
Формат/Информация : Audio Coding 3
Расширение режима : CM (complete main)
Параметр Endianness формата : Big
Идентификатор кодека : A_AC3
Продолжительность : 1 ч. 33 м.
Вид битрейта : Постоянный
Битрейт : 224 Кбит/сек
Каналы : 2 канала
Расположение каналов : Front: L R
Частота : 48,0 КГц
Частота кадров : 31,250 кадров/сек (1536 spf)
Метод сжатия : С потерями
Размер потока : 150 Мбайт (1%)
Заголовок : AMZN
Язык : English
Default : Нет
Forced : Нет

Текст #1
Идентификатор : 7
Формат : UTF-8
Идентификатор кодека : S_TEXT/UTF8
Идентификатор кодека/Информация : UTF-8 Plain Text
Язык : Russian
Default : Нет
Forced : Нет

Текст #2
Идентификатор : 8
Формат : UTF-8
Идентификатор кодека : S_TEXT/UTF8
Идентификатор кодека/Информация : UTF-8 Plain Text
Заголовок : SDH
Язык : English
Default : Нет
Forced : Нет

pb.wtf



Скачать В тылу врага 3: Колумбия через торрент https://c.radikal.ru/c42/1812/4c/f0a6f52571c4.jpg Скачать фильм В тылу врага 3: Колумбия через торрент бесплантно в хорошем качестве Описание: В течение последних 50-ти лет в Колумбии постоянно идет война нелегальных банд формирований с колумбийской армией, война от ... 7.8 10 4
Торрент: Зарегистрирован [2018-12-19 19:51] · скачан: 17 раз
Статус: √ проверено
Размер: 10.07 GB
Как cкачать? Как скачать В тылу врага 3: Колумбия через торрент | qTorrent

28-11-2019 20:33  

Отключить всю рекламу на сайте

    Дорогой пользователь! Огромная просьба, поблагодарите релизера, оцените раздачу и оставьте свои комментарий, если Вы скачали В тылу врага 3: Колумбия через торрент бесплатно! Внесите свою лепту в развитие PiratBit!
    Комментировать посты могут только пользователи прошедшие не сложную регистрацию
    Показать сообщения:    

    В тылу врага 3: Колумбия через торрент
    Скачать бесплатно В тылу врага 3: Колумбия
    В тылу врага 3: Колумбия скачать торрент
    В тылу врага 3: Колумбия смотреть онлайн
    Cкачать фильм В тылу врага 3: Колумбия бесплатно
    В тылу врага 3: Колумбия скачать торрент в хорошем качестве
    В тылу врага 3: Колумбия смотреть онлайн бесплатно в хорошем качестве


    Вы не можете начинать темы
    Вы не можете отвечать на сообщения
    Вы не можете редактировать свои сообщения
    Вы не можете удалять свои сообщения
    Вы не можете голосовать в опросах
    Вы не можете прикреплять файлы к сообщениям
    Вы можете скачивать файлы