Ссылка на приватное зеркало нашего сайта всего за 1$. Внимание количество ограничено!!!

2 сезон

iTunes

1 сезон

1

iTunes

iTunes

iTunes

1 сезон

RePack

30

ИГРА 18+

pack

ВАЖНО

!!Акция!!

Alien_RageХит недели

RePack

MK11
pack

Забери бонус

RePack

jed

!!Акция!!

Alien_Rage

RePack

fifa19

RePack

Assassins Creed: Odyssey

RePack

NEED FOR SPEED™ PAYBACK

4 сезон

9 сезон

Бесстыжие 9 сезон

Все сериалы

все сериалы на PB.wtf

RePack

FAR CRY 5
  

Вышибала / Сезон: 1 / Серии: 1-16 из 16 (Сергей Крутин) [2016, Криминал, драма, HDTV 1080i] pb.wtf

Вышибала через торрент pb.wtf

Размер: 42.64 GB | Добавлен: 1 год 10 мес. назад | Торрент скачан:12 раз
Скачать  

19-12-2018 20:34 Вышибала Скачать торрент  

ВышибалаГод выпуска: 2016
Страна: Россия
Жанр: Криминал, драма
Продолжительность: ~00:45:00
Перевод: не требуется
Субтитры: отсутствуют

Режиссер: Сергей Крутин



В ролях:

Дмитрий Марьянов, Анастасия Панина, Гела Месхи, Мария Машкова, Александр Наумов, Владимир Фекленко, Надежда Маркина, Константин Юшкевич, Ян Цапник, Семён Трескунов, Анна Казючиц, Олег Васильков, Леонид Тимцуник, Фёдор Лавров, Лилия Лаврова, Аксиния Пустыльникова, Екатерина Давыдова-Тонгур, Роман Синицын

Описание:

После отсидки на волю выходит Александр Чижов, по прозвищу Чижик. Пятнадцать лет назад он состоял в Тополевской ОПГ и взял вину за убийство на себя, хотя на самом деле был ни в чем не виноват. Настоящий душегуб, глава тополевской браты Николай Регунов по кличке Гуня, в благодарность за это дал деньги на лечение отца Чижика от онкологии. Бывшая любовь Чижика Наталья Климцова не стала дожидаться сидельца и стала женой Гуни. Ныне Гуня бизнесмен со связями. Он организует хороший прием в честь возвращения Чижика, там же была и Наташа. При взгляде друг на друга между ними опять начинает зарождаться высокое чувство.

Качество: HDTV 1080i
Формат: AVI

Видео: 1920х1080 (16:9), 25 fps, AVC MPEG-4 (x264), High@L4.0 ~ 7900 kbps avg, 0.152 bit/pixel
Аудио: 48 kHz, MPEG Layer 2, 2 ch, ~ 192 kbps avg
скриншот  скриншот  скриншот  скриншот  

General
ID : 1 (0x1)
Complete name : D:\Раздачи\Вышибала (1-16 серии из 16) HDTV (1080i)\Vyshibala.(03.seriya.iz.16).2016.HDTV.(1080i).Nikolspup.ts
Format : MPEG-TS
File size : 2.69 GiB
Duration : 45mn 28s
Overall bit rate mode : Variable
Overall bit rate : 8 474 Kbps

Video
ID : 68 (0x44)
Menu ID : 1 (0x1)
Format : AVC
Format/Info : Advanced Video Codec
Format profile : Main@L4
Format settings, CABAC : Yes
Format settings, ReFrames : 2 frames
Codec ID : 27
Duration : 45mn 28s
Bit rate : 7 862 Kbps
Width : 1 920 pixels
Height : 1 080 pixels
Display aspect ratio : 16:9
Frame rate : 25.000 fps
Color space : YUV
Chroma subsampling : 4:2:0
Bit depth : 8 bits
Scan type : MBAFF
Scan type, store method : Interleaved fields
Scan order : Top Field First
Bits/(Pixel*Frame) : 0.152
Stream size : 2.50 GiB (93%)
Color range : Limited
Color primaries : BT.709
Transfer characteristics : BT.709
Matrix coefficients : BT.709

Audio
ID : 902 (0x386)
Menu ID : 1 (0x1)
Format : MPEG Audio
Format version : Version 1
Format profile : Layer 2
Codec ID : 3
Duration : 45mn 28s
Bit rate mode : Constant
Bit rate : 192 Kbps
Channel(s) : 2 channels
Sampling rate : 48.0 KHz
Compression mode : Lossy
Delay relative to video : -40ms
Stream size : 62.5 MiB (2%)
Language : Russian

pb.wtf



Скачать Вышибала через торрент http://i77.fastpic.ru/big/2016/0615/da/3a2287674dba3109171f9622cdd470da.jpg Скачать фильм Вышибала через торрент бесплантно в хорошем качестве Описание: После отсидки на волю выходит Александр Чижов, по прозвищу Чижик. Пятнадцать лет назад он состоял в Тополевской ОПГ и взял вину ... 10 10 4
Info! Золотая раздача, скачанное не засчитывается.
Торрент: Зарегистрирован [2018-12-19 20:34] · скачан: 12 раз
Статус: √ проверено
Размер: 42.64 GB
Как cкачать? Как скачать Вышибала через торрент | qTorrent

% Раздел Тема Автор DL S | L
Наши сериалы [ 9.75 GB ] Вышибала / Сезон: 1 / Серии: 1-16 из 16 [2016 SATRip] bober100 Скачать
1 | 0
Наши сериалы [ 11.05 GB ] Вышибала / Сезон: 1 / Серии: 1-16 из 16 [2016 HDTVRip-AVC] bober100 Скачать
1 | 0
Наши сериалы [ 24.89 GB ] Вышибала / Сезон: 1 / Серии: 1-16 из 16 [2016 HDTVRip 720p] bober100 Скачать
1 | 0
Наши сериалы [ 8.6 GB ] Вышибала / Сезон: 1 / Серия 1-16 [2016 HDTVRip] nn99nn Скачать
1 | 0

28-11-2019 20:33  

Отключить всю рекламу на сайте

    Дорогой пользователь! Огромная просьба, поблагодарите релизера, оцените раздачу и оставьте свои комментарий, если Вы скачали Вышибала через торрент бесплатно! Внесите свою лепту в развитие PiratBit!
    Комментировать посты могут только пользователи прошедшие не сложную регистрацию
    Показать сообщения:    

    Вышибала через торрент
    Скачать бесплатно Вышибала
    Вышибала скачать торрент
    Вышибала смотреть онлайн
    Cкачать фильм Вышибала бесплатно
    Вышибала скачать торрент в хорошем качестве
    Вышибала смотреть онлайн бесплатно в хорошем качестве


    Вы не можете начинать темы
    Вы не можете отвечать на сообщения
    Вы не можете редактировать свои сообщения
    Вы не можете удалять свои сообщения
    Вы не можете голосовать в опросах
    Вы не можете прикреплять файлы к сообщениям
    Вы можете скачивать файлы