новый адрес
Ссылка на приватное зеркало всего за 1$. Внимание количество ограничено!!!

iTunes

1+1

iTunes

мы

iTunes

1

iTunes

Чернобыль

iTunes

Ральф против интернета

Лицензия

ПШазам

Лицензия

Оно 2

Лицензия

30
pack

Вам бонус

ВАЖНО

!!Акция!!

Alien_RageХит недели

RePack

Resident Evil 21

ИГРА 18+

pack

RePack

jed

!!Акция!!

Alien_Rage

RePack

fifa19

RePack

Assassins Creed: Odyssey

RePack

NEED FOR SPEED™ PAYBACK

3 сезон

9 сезон

Бесстыжие 9 сезон

Все сериалы

все сериалы на PB.wtf

RePack

FAR CRY 5
Ребята, катастрофически не хватает 1900р. для оплаты серверов за Октябрь (всвязи с блокировками трафик упал в 3 раза), 1-2р., выручайте.
  

Обратные дороги / Back Roads (Алекс Петтифер) [2018 г., триллер, драма, WEB-DLRip] MVO [HDRezka Studio] pb.wtf

Обратные дороги через торрент pb.wtf

Раздают: 2 [ 0 KB/s ]
Размер: 1.46 GB | Добавлен: 9 мес. назад | Торрент скачан:216 раз
Скачать  

19-12-2018 21:38 Обратные дороги Скачать торрент  

Обратные дороги / Back Roads
Год выпуска: 2018
Страна: США
Жанр: Триллер, драма
Продолжительность: 01:41:08
Перевод: Профессиональный (многоголосый) - HDRezka Studio

Режиссер: Алекс Петтифер

rating

В ролях: Джульетт Льюис, Дженнифер Моррисон, Никола Пельтц, Алекс Петтифер, Даника Ярош, Роберт Патрик, Том Эверетт Скотт, Роберт Лонгстрит, Кьяра Аурелия, Скай Элобар

Описание: Харли Алтмайер с трудом воспитывает своих младших сестёр после ужасного происшествия: их отец застрелен, а мать находится в тюрьме, обвинённая в убийстве мужа. Харли заводит роман с Калли Мерсер, замужней матерью двоих детей, но его жизнь окончательно усложняется, когда он становится главным подозреваемым в убийстве.
Качество: WEB-DLRip
Формат: AVI
Видео кодек: XviD
Аудио кодек: AC3
Видео: XviD, 1674 Кбит/с, 720x384
Аудио: Русский, AC3, 6 ch, 384 Кбит/с
Видео
Идентификатор : 0
Формат : MPEG-4 Visual
Профиль формата : Advanced Simple@L5
Настройки формата : BVOP1 / Custom Matrix
Параметр BVOP формата : 1
Параметр QPel формата : Нет
Параметр GMC формата : Без точки перехода
Параметр матрицы формата : Выборочная
Идентификатор кодека : XVID
Идентификатор кодека/Подсказка : XviD
Продолжительность : 1 ч. 41 м.
Битрейт : 1674 Кбит/сек
Ширина : 720 пикселей
Высота : 384 пикселя
Соотношение сторон : 1,85:1
Частота кадров : 23,976 (24000/1001) кадра/сек
Цветовое пространство : YUV
Субдискретизация насыщенности : 4:2:0
Битовая глубина : 8 бит
Тип развёртки : Прогрессивная
Метод сжатия : С потерями
Бит/(Пиксели*Кадры) : 0.252
Размер потока : 1,18 Гбайт (81%)
Библиотека кодирования : XviD 73

Аудио
Идентификатор : 1
Формат : AC-3
Формат/Информация : Audio Coding 3
Коммерческое название : Dolby Digital
Идентификатор кодека : 2000
Продолжительность : 1 ч. 41 м.
Вид битрейта : Постоянный
Битрейт : 384 Кбит/сек
Каналы : 6 каналов
Channel layout : L R C LFE Ls Rs
Частота : 48,0 КГц
Частота кадров : 31,250 кадров/сек (1536 SPF)
Битовая глубина : 16 бит
Метод сжатия : С потерями
Размер потока : 278 Мбайт (19%)
Выравнивание : Разделение по промежуткам
Продолжительность промежутка : 42 мс. (1,00 видеокадр)
Время предзагрузки промежутка : 500 мс.
ServiceKind/String : Complete Main

скриншот   скриншот   скриншот   скриншот   скриншот  

Без рекламыpb.wtf



Скачать Обратные дороги через торрент http://pic1.kartinco.top/images/12/8p9d8.jpg Скачать фильм Обратные дороги через торрент бесплантно в хорошем качестве Описание: Харли Алтмайер с трудом воспитывает своих младших сестёр после ужасного происшествия: их отец застрелен, а мать находится в ... 9.9 10 8
× Info от релизера! Заменил на "Без рекамы"
Торрент: Зарегистрирован [2019-02-17 20:25] · скачан: 216 раз
Статус: T временная
Размер: 1.46 GB
Как cкачать? Как скачать Обратные дороги через торрент | qTorrent

% Раздел Тема Автор DL S | L
T Фильмы (WEB-DL 720p, 1080p) [ 4.87 GB ] Обратные дороги / Back Roads [2018 WEB-DL 1080p] MVO [HDRezka Studio] bober100 Скачать
2 | 0
Отключить всю рекламу на сайте

17-02-2019 20:26 Обратные дороги Скачать торрент  

    Дорогой пользователь! Огромная просьба, поблагодарите релизера, оцените раздачу и оставьте свои комментарий, если Вы скачали Обратные дороги через торрент бесплатно! Внесите свою лепту в развитие PiratBit!
    Комментировать посты могут только пользователи прошедшие не сложную регистрацию
    Показать сообщения:    

    Обратные дороги через торрент
    Скачать бесплатно Обратные дороги
    Обратные дороги скачать торрент
    Обратные дороги смотреть онлайн
    Cкачать фильм Обратные дороги бесплатно
    Обратные дороги скачать торрент в хорошем качестве
    Обратные дороги смотреть онлайн бесплатно в хорошем качестве


    Вы не можете начинать темы
    Вы не можете отвечать на сообщения
    Вы не можете редактировать свои сообщения
    Вы не можете удалять свои сообщения
    Вы не можете голосовать в опросах
    Вы не можете прикреплять файлы к сообщениям
    Вы можете скачивать файлы