Ссылка на приватное зеркало нашего сайта всего за 1$. Внимание количество ограничено!!!

2 сезон

iTunes

1 сезон

1

2 сезон

2 сезон

iTunes

1 сезон

RePack

30

Ultimate

ВАЖНО

ИГРА 18+

pack

RePack

MK11
pack

Забери бонус

RePack

jed

!!Акция!!

Alien_Rage

RePack

fifa19

RePack

Assassins Creed: Odyssey

RePack

NEED FOR SPEED™ PAYBACK

4 сезон

9 сезон

Бесстыжие 9 сезон

Все сериалы

все сериалы на PB.wtf

RePack

FAR CRY 5
  

Хэллоуин / Halloween (Дэвид Гордон Грин) [2018, ужасы, триллер, WEB-DL 720p] DUB [iTunes] pb.wtf

Хэллоуин через торрент pb.wtf

Размер: 3.42 GB | Добавлен: 1 год 11 мес. назад | Торрент скачан:506 раз
Скачать  

19-12-2018 21:54 Хэллоуин Скачать торрент  

Хэллоуин / Halloween Год выпуска: 2018
Страна: США
Жанр: ужасы, триллер
Продолжительность: 01:45:47
Перевод: Дублированный | iTunes
Субтитры: отсутствуют

Режиссер: Дэвид Гордон Грин

rating

В ролях:

Джейми Ли Кёртис, Джуди Грир, Энди Мэтичак, Джеймс Джуд Кортни, Ник Касл, Халук Бильгинер, Уилл Пэттон, Риан Риис, Джефферсон Холл, Тоби Хасс

Описание:

Зло неизменно возвращается, и им нельзя управлять. Его можно временно уничтожить, застрелить, сжечь, но вернется оно всё равно неизбежно. Майкл Майерс не закончил свое дело в Хэддонфилде, и скоро он вернётся домой, чтобы снова убивать.

Качество: WEB-DL 720p
Формат: MKV

Видео: MPEG-4 AVC, 1916x800, 4547 Kbit/s, 23.976 fps
Аудио: 48 kHz, AC3, 5.1, 384 Kbps | iTunes | RUS |
Аудио: 48 kHz, AC3, 2.0, 192 Kbps | Оригинал | ENG |
скриншот  скриншот  скриншот  скриншот  скриншот  

General
Unique ID : 301600014295048773346203301872529107495 (0xE2E60CC4A9D458F93E098610548CEA27)
Complete name : D:Video111Halloween.2018.WEB-DL.720p.seleZen.mkv
Format : Matroska
Format version : Version 4
File size : 3.42 GiB
Duration : 1 h 45 min
Overall bit rate : 4 634 kb/s
Movie name : Halloween 2018 from селезень
Encoded date : UTC 2018-12-19 21:31:07
Writing application : mkvmerge v29.0.0 ('Like It Or Not') 64-bit
Writing library : libebml v1.3.6 + libmatroska v1.4.9

Video
ID : 1
Format : AVC
Format/Info : Advanced Video Codec
Format profile : Main@L3.1
Format settings : 2 Ref Frames
Format settings, CABAC : No
Format settings, ReFrames : 2 frames
Codec ID : V_MPEG4/ISO/AVC
Duration : 1 h 45 min
Bit rate : 4 056 kb/s
Width : 1 280 pixels
Height : 534 pixels
Display aspect ratio : 2.40:1
Frame rate mode : Constant
Frame rate : 23.976 (23976/1000) FPS
Color space : YUV
Chroma subsampling : 4:2:0
Bit depth : 8 bits
Scan type : Progressive
Bits/(Pixel*Frame) : 0.248
Stream size : 3.00 GiB (88%)
Language : English
Default : Yes
Forced : No
Color range : Limited
Color primaries : BT.709
Transfer characteristics : BT.709
Matrix coefficients : BT.709

Audio #1
ID : 2
Format : AC-3
Format/Info : Audio Coding 3
Commercial name : Dolby Digital
Codec ID : A_AC3
Duration : 1 h 45 min
Bit rate mode : Constant
Bit rate : 384 kb/s
Channel(s) : 6 channels
Channel layout : L R C LFE Ls Rs
Sampling rate : 48.0 kHz
Frame rate : 31.250 FPS (1536 SPF)
Bit depth : 16 bits
Compression mode : Lossy
Stream size : 291 MiB (8%)
Title : iTunes
Language : Russian
Service kind : Complete Main
Default : Yes
Forced : Yes

Audio #2
ID : 3
Format : AC-3
Format/Info : Audio Coding 3
Commercial name : Dolby Digital
Codec ID : A_AC3
Duration : 1 h 45 min
Bit rate mode : Constant
Bit rate : 192 kb/s
Channel(s) : 2 channels
Channel layout : L R
Sampling rate : 48.0 kHz
Frame rate : 31.250 FPS (1536 SPF)
Bit depth : 16 bits
Compression mode : Lossy
Delay relative to video : 100 ms
Stream size : 145 MiB (4%)
Title : Original
Language : English
Service kind : Complete Main
Default : No
Forced : No

Menu
00:00:00.000 : en:1
00:08:43.523 : en:2
00:14:27.950 : en:3
00:20:47.996 : en:4
00:23:18.855 : en:5
00:27:46.080 : en:6
00:32:56.723 : en:7
00:40:52.365 : en:8
00:44:42.053 : en:9
00:48:27.403 : en:10
00:53:27.453 : en:11
00:59:19.596 : en:12
01:03:23.339 : en:13
01:07:30.627 : en:14
01:14:47.522 : en:15
01:18:11.559 : en:16
01:22:05.834 : en:17
01:30:10.902 : en:18
01:35:34.392 : en:19
01:40:42.491 : en:20

pb.wtf



Скачать Хэллоуин через торрент http://img15.lostpic.net/2018/12/20/259fc4f6c562bf37fc684b1f10892d52.jpg Скачать фильм Хэллоуин через торрент бесплантно в хорошем качестве Описание: Зло неизменно возвращается, и им нельзя управлять. Его можно временно уничтожить, застрелить, сжечь, но вернется оно всё равно ... 9.8 10 9
Торрент: Зарегистрирован [2018-12-19 21:54] · скачан: 506 раз
Статус: √ проверено
Размер: 3.42 GB
Как cкачать? Как скачать Хэллоуин через торрент | qTorrent

% Раздел Тема Автор DL S | L
Ultra HD (UHD: 2K, 4K, 8K) — видео сверхвысокой чёткости [ 14.95 GB ] Хэллоуин Хьюби / Hubie Halloween [2020 UHD WEB-DL 2160p ] DUB [Пифагор / Netflix] bober100 Скачать
3 | 0
Фильмы (WEB-DL 720p, 1080p) [ 5.25 GB ] Хэллоуин Хьюби / Hubie Halloween [2020 WEB-DL-HEVC 1080p] DUB [Пифагор / Netflix] bober100 Скачать
9 | 0
Фильмы (WEB-DL 720p, 1080p) [ 5.84 GB ] Хэллоуин Хьюби / Hubie Halloween [2020 WEB-DL 1080p] DUB [Пифагор / Netflix] bober100 Скачать
6 | 0
Фильмы 2019-2020 [DVDrip, WEB-DLRip, HDrip] (DUB, MVO) [ 1.44 GB ] Хэллоуин Хьюби / Hubie Halloween [2020 WEB-DLRip-AVC] DUB [Пифагор / Netflix] bober100 Скачать
7 | 0
Фильмы 2019-2020 [DVDrip, WEB-DLRip, HDrip] (DUB, MVO) [ 1.46 GB ] Хэллоуин Хьюби / Hubie Halloween [2020 WEB-DLRip] DUB [Пифагор / Netflix] bober100 Скачать
3 | 0
Фильмы (WEB-DL 720p, 1080p) [ 3.78 GB ] Хэллоуин Хьюби / Hubie Halloween [2020 WEB-DL 720p] DUB [Пифагор / Netflix] bober100 Скачать
31 | 3
T Фильмы (мультфильмы) cо спонсором показа (Новинки AVI/MKV) [ 2.38 GB ] Сборник хэллоуинских короткометражных фильмов от MVB Films: Часть 2 / MVB Films Halloween Horror Stories Vol II [2018 WEB-DL 720p] MVO ["Синема УС"] bober100 Скачать
1 | 0

28-11-2019 20:33  

Отключить всю рекламу на сайте

20-12-2018 23:18 Хэллоуин Скачать торрент  

постная херня , зря потраченное времяpb.wtf



24-12-2018 08:42 Хэллоуин Скачать торрент  

нормальный фильмpb.wtf



    Дорогой пользователь! Огромная просьба, поблагодарите релизера, оцените раздачу и оставьте свои комментарий, если Вы скачали Хэллоуин через торрент бесплатно! Внесите свою лепту в развитие PiratBit!
    Комментировать посты могут только пользователи прошедшие не сложную регистрацию
    Показать сообщения:    

    Хэллоуин через торрент
    Скачать бесплатно Хэллоуин
    Хэллоуин скачать торрент
    Хэллоуин смотреть онлайн
    Cкачать фильм Хэллоуин бесплатно
    Хэллоуин скачать торрент в хорошем качестве
    Хэллоуин смотреть онлайн бесплатно в хорошем качестве


    Вы не можете начинать темы
    Вы не можете отвечать на сообщения
    Вы не можете редактировать свои сообщения
    Вы не можете удалять свои сообщения
    Вы не можете голосовать в опросах
    Вы не можете прикреплять файлы к сообщениям
    Вы можете скачивать файлы