Ссылка на приватное зеркало нашего сайта всего за 1$. Внимание количество ограничено!!!

2 сезон

iTunes

1 сезон

1

2 сезон

2 сезон

iTunes

1 сезон

RePack

30

Новинка

ВАЖНО

ИГРА 18+

pack

RePack

MK11
pack

Забери бонус

RePack

jed

!!Акция!!

Alien_Rage

RePack

fifa19

RePack

Assassins Creed: Odyssey

RePack

NEED FOR SPEED™ PAYBACK

4 сезон

9 сезон

Бесстыжие 9 сезон

Все сериалы

все сериалы на PB.wtf

RePack

FAR CRY 5
  

Страна тигров / Tigerland (Джоэл Шумахер) [2000, драма, военный, BD Remux 1080p] DUB+MVO pb.wtf

Страна тигров через торрент pb.wtf

Размер: 25.69 GB | Добавлен: 1 год 11 мес. назад | Торрент скачан:8 раз
Скачать  

20-12-2018 05:22 Страна тигров Скачать торрент  

Страна тигров / Tigerland
Год выпуска: 2000
Страна: США Германия
Жанр: драма, военный
Продолжительность: 01:40:59
Перевод: Профессиональный (полное дублирование) + Профессиональный (многоголосый, закадровый)
Субтитры: русские (full + Commentary), английские

Режиссер: Джоэл Шумахер

rating

В ролях:

Колин Фаррелл, Мэттью Дэвис, Шей Уигэм, Клифтон Коллинз мл., Расселл Ричардсон, Том Гайри, Коул Хаузер, Майкл Шеннон, Ник Сирси

Описание:

Чтобы подготовить новобранцев к войне во Вьетнаме, в США построен самый совершенный тренировочный центр. Это место, существующее по своим, особым законам, пользуется дурной славой. Большинство попавших туда, жалеют о том, что они вообще родились. Это адская фабрика, где молодых ребят превращают в боевые машины, хладнокровных убийц, способных не задумываясь выполнить любой приказ. У этой системы свои, жесткие методы воздействия.

И после такой тренировки, война во Вьетнаме будет доставлять удовольствие. Однако среди массы новобранцев находится тот, кто пытается оставаться человеком. Он лидер, и способен повести за собой остальных, но чем закончится этот путь, сложно даже представить…

Качество: BD Remux 1080p
Формат: MKV

Видео: 1920x1080 (16:9), 23.976 fps, MPEG-4 AVC ~32.4 Мbps avg
Аудио#1: 48.0 kHz, Digital Theater Systems, 3/2 (L,C,R,l,r) + LFE ch, ~755 kbps | RUS / DUB / с Blu-ray EUR
Аудио#2: 48.0 kHz, Digital Theater Systems, 3/2 (L,C,R,l,r) + LFE ch, ~755 kbps | RUS / MVO / с DVD R5
Аудио#3: 48.0 kHz, Digital Theater Systems Master Audio, 3/2 (L,C,R,l,r) + LFE ch, ~2684 kbps | ENG
Аудио#4: 48.0 kHz, AC3 Dolby Digital, 2/0 (L,R) ch, ~224 kbps | ENG / Commentary
скриншот  скриншот  скриншот  

General
Уникальный идентификатор : 183548981720371621880487551671872416144 (0x8A163F7DF50D7A46A397A462187A6990)
Полное имя : Tigerland.2000.BD.Remux.h264.DTS.Rus.Eng.mkv
Формат : Matroska
Размер файла : 25,7 Гбайт
Продолжительность : 1 ч. 40 м.
Общий поток : 36,4 Мбит/сек
Название фильма : Tigerland (2000)
Дата кодирования : UTC 2011-05-02 23:10:34
Программа кодирования : mkvmerge v4.7.0 ('Just Like You Imagined') сборка от Apr 21 2011 01:13:14
Библиотека кодирования : libebml v1.2.0 + libmatroska v1.1.0

Видео
Идентификатор : 1
Формат : AVC
Формат/Информация : Advanced Video Codec
Профиль формата : High@L4.1
Параметр CABAC формата : Да
Параметр ReFrames формата : 4 кадры
Режим смешивания : Container profile=Unknown@0.0
Идентификатор кодека : V_MPEG4/ISO/AVC
Продолжительность : 1 ч. 40 м.
Вид битрейта : Переменный
Битрейт : 32,4 Мбит/сек
Максимальный битрейт : 37,0 Мбит/сек
Ширина : 1920 пикс.
Высота : 1080 пикс.
Соотношение сторон : 16:9
Частота кадров : 23,976 кадр/сек
Цветовое пространство : YUV
Подвыборка цветности : 4:2:0
Битовая глубина : 8 бит
Тип развёртки : Прогрессивная
Бит/(Пиксели*Кадры) : 0.652
Размер потока : 22,9 Гбайт (89%)
Заголовок : Tigerland (2000) BD-Remux AVC 1080p DTS-HD 5.1
Язык : English

Аудио #1
Идентификатор : 2
Формат : DTS
Формат/Информация : Digital Theater Systems
Идентификатор кодека : A_DTS
Продолжительность : 1 ч. 40 м.
Вид битрейта : Постоянный
Битрейт : 755 Кбит/сек
Канал(ы) : 6 канала(ов)
Расположение каналов : Front: L C R, Side: L R, LFE
Частота : 48,0 КГц
Битовая глубина : 24 бит
Метод сжатия : С потерями
Размер потока : 545 Мбайт (2%)
Заголовок : Dub DTS 5.1 @ 755 kbps
Язык : Russian

Аудио #2
Идентификатор : 3
Формат : DTS
Формат/Информация : Digital Theater Systems
Идентификатор кодека : A_DTS
Продолжительность : 1 ч. 40 м.
Вид битрейта : Постоянный
Битрейт : 755 Кбит/сек
Канал(ы) : 6 канала(ов)
Расположение каналов : Front: L C R, Side: L R, LFE
Частота : 48,0 КГц
Битовая глубина : 16 бит
Метод сжатия : С потерями
Размер потока : 545 Мбайт (2%)
Заголовок : MVO DTS 5.1 @ 755 kbps
Язык : Russian

Аудио #3
Идентификатор : 4
Формат : DTS
Формат/Информация : Digital Theater Systems
Профиль формата : MA / Core
Идентификатор кодека : A_DTS
Продолжительность : 1 ч. 40 м.
Вид битрейта : Переменный
Битрейт : 1561 Кбит/сек / 1510 Кбит/сек
Канал(ы) : 6 канала(ов)
Расположение каналов : Front: L C R, Side: L R, LFE
Частота : 48,0 КГц
Битовая глубина : 24 бит
Метод сжатия : Без потерь / Lossy
Заголовок : DTS-HD MA 5.1 @ 2684 kbps (DTS Core: 5.1 / 48 kHz / 1509 kbps / 24-bit)
Язык : English

Аудио #4
Идентификатор : 5
Формат : AC-3
Формат/Информация : Audio Coding 3
Расширение режима : CM (complete main)
Идентификатор кодека : A_AC3
Продолжительность : 1 ч. 40 м.
Вид битрейта : Постоянный
Битрейт : 224 Кбит/сек
Канал(ы) : 2 канала(ов)
Расположение каналов : Front: L R
Частота : 48,0 КГц
Битовая глубина : 16 бит
Метод сжатия : С потерями
Размер потока : 162 Мбайт (1%)
Заголовок : Commentary
Язык : English

Текст #1
Идентификатор : 6
Формат : UTF-8
Идентификатор кодека : S_TEXT/UTF8
Идентификатор кодека/Информация : UTF-8 Plain Text
Заголовок : Full
Язык : Russian

Текст #2
Идентификатор : 7
Формат : UTF-8
Идентификатор кодека : S_TEXT/UTF8
Идентификатор кодека/Информация : UTF-8 Plain Text
Заголовок : Commentary
Язык : Russian

Текст #3
Идентификатор : 8
Формат : UTF-8
Идентификатор кодека : S_TEXT/UTF8
Идентификатор кодека/Информация : UTF-8 Plain Text
Язык : English

Меню
00:00:00.000 : en:00:00:00.000
00:04:40.280 : en:00:04:40.280
00:06:11.580 : en:00:06:11.580
00:11:22.724 : en:00:11:22.724
00:14:09.182 : en:00:14:09.182
00:17:21.749 : en:00:17:21.749
00:20:15.923 : en:00:20:15.923
00:25:21.520 : en:00:25:21.520
00:31:02.569 : en:00:31:02.569
00:37:31.207 : en:00:37:31.207
00:42:46.731 : en:00:42:46.731
00:45:58.798 : en:00:45:58.798
00:51:58.157 : en:00:51:58.157
00:56:24.006 : en:00:56:24.006
01:00:17.948 : en:01:00:17.948
01:03:10.036 : en:01:03:10.036
01:05:20.375 : en:01:05:20.375
01:07:32.757 : en:01:07:32.757
01:13:27.403 : en:01:13:27.403
01:16:10.524 : en:01:16:10.524
01:20:36.498 : en:01:20:36.498
01:28:33.642 : en:01:28:33.642
01:32:04.811 : en:01:32:04.811
01:35:53.581 : en:01:35:53.581

pb.wtf



Скачать Страна тигров через торрент http://img14.lostpic.net/2018/12/20/f13556e084743470ffbff6dde9db7242.png Скачать фильм Страна тигров через торрент бесплантно в хорошем качестве Описание: Чтобы подготовить новобранцев к войне во Вьетнаме, в США построен самый совершенный тренировочный центр. Это место, существующее ... 7 10 3
Info! Золотая раздача, скачанное не засчитывается.
Торрент: Зарегистрирован [2018-12-20 05:22] · скачан: 8 раз
Статус: √ проверено
Размер: 25.69 GB
Как cкачать? Как скачать Страна тигров через торрент | qTorrent

28-11-2019 20:33  

Отключить всю рекламу на сайте

    Дорогой пользователь! Огромная просьба, поблагодарите релизера, оцените раздачу и оставьте свои комментарий, если Вы скачали Страна тигров через торрент бесплатно! Внесите свою лепту в развитие PiratBit!
    Комментировать посты могут только пользователи прошедшие не сложную регистрацию
    Показать сообщения:    

    Страна тигров через торрент
    Скачать бесплатно Страна тигров
    Страна тигров скачать торрент
    Страна тигров смотреть онлайн
    Cкачать фильм Страна тигров бесплатно
    Страна тигров скачать торрент в хорошем качестве
    Страна тигров смотреть онлайн бесплатно в хорошем качестве


    Вы не можете начинать темы
    Вы не можете отвечать на сообщения
    Вы не можете редактировать свои сообщения
    Вы не можете удалять свои сообщения
    Вы не можете голосовать в опросах
    Вы не можете прикреплять файлы к сообщениям
    Вы можете скачивать файлы