Ссылка на приватное зеркало нашего сайта всего за 1$. Внимание количество ограничено!!!

2 сезон

iTunes

1 сезон

1

2 сезон

2 сезон

iTunes

1 сезон

RePack

30

Ultimate

ВАЖНО

ИГРА 18+

pack

RePack

MK11
pack

Забери бонус

RePack

jed

!!Акция!!

Alien_Rage

RePack

fifa19

RePack

Assassins Creed: Odyssey

RePack

NEED FOR SPEED™ PAYBACK

4 сезон

9 сезон

Бесстыжие 9 сезон

Все сериалы

все сериалы на PB.wtf

RePack

FAR CRY 5
  

Пресса / Press / Сезон: 1 / Серии: 1-6 из 6 (Том Вон) [2018, драма, WEB-DL 1080p] MVO [TVShows] pb.wtf

Пресса через торрент pb.wtf

Размер: 15.93 GB | Добавлен: 1 год 11 мес. назад | Торрент скачан:8 раз
Скачать  

20-12-2018 05:31 Пресса Скачать торрент  

Пресса / Press
Год выпуска: 2018
Страна: Великобритания США
Жанр: драма
Продолжительность: ~00:58:00
Перевод: Профессиональный (многоголосый) | TVShows
Субтитры: отсутствуют

Режиссер: Том Вон

rating

В ролях:

Шарлотта Райли, Приянга Бёрфорд, Аль Уивер, Бен Чаплин, Паапа Эссьеду, Шэйн Заза, Элли Кендрик

Описание:

Истории жизни журналистов нескольких изданий, которые сталкиваются с различными этическими вопросами...

Качество: WEB-DL 1080p
Формат: MKV

Видео: 1920x960 (2.000), 25.000 fps, MPEG-4 AVC ~4 690 kbps avg
Аудио#1: 48.0 kHz, AC3 Dolby Digital, 3/2 (L,C,R,l,r) + LFE ch, ~384 kbps | RUS / MVO
Аудио#2: 48.0 kHz, Enhanced Audio Coding 3, 3/2 (L,C,R,l,r) + LFE ch, ~640 kbps | ENG
скриншот  скриншот  скриншот  

General
Unique ID : 89355884430616020707552980074124791923 (0x4339513E0F6682303E0C547B5BBFD073)
Complete name : Press.S01.1080p.TVShows\Press.S01E01.1080p.TVShows.mkv
Format : Matroska
Format version : Version 4 / Version 2
File size : 2.31 GiB
Duration : 57 min 55 s
Overall bit rate : 5 717 kb/s
Encoded date : UTC 2018-11-29 18:05:02
Writing application : mkvmerge v28.2.0 ('The Awakening') 64-bit
Writing library : libebml v1.3.6 + libmatroska v1.4.9

Video
ID : 1
Format : AVC
Format/Info : Advanced Video Codec
Format profile : High@L4
Format settings, CABAC : Yes
Format settings, RefFrames : 4 frames
Codec ID : V_MPEG4/ISO/AVC
Duration : 57 min 55 s
Bit rate : 4 691 kb/s
Width : 1 920 pixels
Height : 960 pixels
Display aspect ratio : 2.000
Frame rate mode : Constant
Frame rate : 25.000 FPS
Color space : YUV
Chroma subsampling : 4:2:0
Bit depth : 8 bits
Scan type : Progressive
Bits/(Pixel*Frame) : 0.102
Stream size : 1.90 GiB (82%)
Default : Yes
Forced : No
Color range : Limited
Color primaries : BT.709
Transfer characteristics : BT.709
Matrix coefficients : BT.709

Audio #1
ID : 2
Format : AC-3
Format/Info : Audio Coding 3
Format settings, Endianness : Big
Codec ID : A_AC3
Duration : 57 min 55 s
Bit rate mode : Constant
Bit rate : 384 kb/s
Channel(s) : 6 channels
Channel positions : Front: L C R, Side: L R, LFE
Sampling rate : 48.0 kHz
Frame rate : 31.250 FPS (1536 SPF)
Bit depth : 16 bits
Compression mode : Lossy
Stream size : 159 MiB (7%)
Title : TVShows
Language : Russian
Service kind : Complete Main
Default : Yes
Forced : Yes

Audio #2
ID : 3
Format : E-AC-3
Format/Info : Enhanced Audio Coding 3
Format settings, Endianness : Big
Codec ID : A_EAC3
Duration : 57 min 55 s
Bit rate mode : Constant
Bit rate : 640 kb/s
Channel(s) : 6 channels
Channel positions : Front: L C R, Side: L R, LFE
Sampling rate : 48.0 kHz
Frame rate : 187.500 FPS (256 SPF)
Compression mode : Lossy
Stream size : 265 MiB (11%)
Title : Original
Language : English
Service kind : Complete Main
Default : No
Forced : No

pb.wtf



Скачать Пресса через торрент http://img14.lostpic.net/2018/12/20/4cee2f607bbd06aa0e6df11372e98931.png Скачать фильм Пресса через торрент бесплантно в хорошем качестве Описание: Истории жизни журналистов нескольких изданий, которые сталкиваются с различными этическими ... 10 10 2
Торрент: Зарегистрирован [2018-12-20 05:31] · скачан: 8 раз
Статус: √ проверено
Размер: 15.93 GB
Как cкачать? Как скачать Пресса через торрент | qTorrent

% Раздел Тема Автор DL S | L
Зарубежные сериалы [ 4.69 GB ] Пресса / Press / Сезон: 1 / Серии: 1-6 из 6 [2018 WEB-DLRip] [MVO] killermax2013 Скачать
1 | 0

28-11-2019 20:33  

Отключить всю рекламу на сайте

    Дорогой пользователь! Огромная просьба, поблагодарите релизера, оцените раздачу и оставьте свои комментарий, если Вы скачали Пресса через торрент бесплатно! Внесите свою лепту в развитие PiratBit!
    Комментировать посты могут только пользователи прошедшие не сложную регистрацию
    Показать сообщения:    

    Пресса через торрент
    Скачать бесплатно Пресса
    Пресса скачать торрент
    Пресса смотреть онлайн
    Cкачать фильм Пресса бесплатно
    Пресса скачать торрент в хорошем качестве
    Пресса смотреть онлайн бесплатно в хорошем качестве


    Вы не можете начинать темы
    Вы не можете отвечать на сообщения
    Вы не можете редактировать свои сообщения
    Вы не можете удалять свои сообщения
    Вы не можете голосовать в опросах
    Вы не можете прикреплять файлы к сообщениям
    Вы можете скачивать файлы