новый адрес
Ссылка на приватное зеркало всего за 1$. Внимание количество ограничено!!!

iTunes

1+1

iTunes

мы

WEB-DL

1

iTunes

Чернобыль

iTunes

Ральф против интернета

Лицензия

ПШазам

Лицензия

Оно 2

Лицензия

30
pack

Вам бонус

ВАЖНО

!!Акция!!

Alien_RageХит недели

RePack

Resident Evil 21

ИГРА 18+

pack

RePack

jed

!!Акция!!

Alien_Rage

RePack

fifa19

RePack

Assassins Creed: Odyssey

RePack

NEED FOR SPEED™ PAYBACK

3 сезон

9 сезон

Бесстыжие 9 сезон

Все сериалы

все сериалы на PB.wtf

RePack

FAR CRY 5
Ребята, катастрофически не хватает 1900р. для оплаты серверов за Октябрь (всвязи с блокировками трафик упал в 3 раза), 1-2р., выручайте.
  

Добрый вечер (Фёдор Константинович) [2018, комедия, криминал, WEB-DLRip] [iTunes] pb.wtf

Добрый вечер через торрент pb.wtf

Размер: 1.49 GB | Добавлен: 11 мес. назад | Торрент скачан:469 раз
Скачать  

20-12-2018 07:31 Добрый вечер Скачать торрент  

Добрый вечер Год выпуска: 2018
Страна: Россия
Жанр: комедия, криминал
Продолжительность: 01:19:57
Перевод: не требуется (оригинал) | iTunes
Субтитры: отсутствуют

Режиссер: Фёдор Константинович

rating

В ролях:

Вильма Кутавичюте, Артём Цуканов, Кристина Казинская, Филипп Савинков

Описание:

В придорожном отеле сталкиваются бандит и писатель, монахиня и проститутка. У каждого есть план на этот вечер. Спор. Ссора. Секс. Убийство. Кто кого..?

Качество: WEB-DLRip
Формат: AVI

Видео: 720x304 (2.35:1), 24.000 fps, XviD build 67 ~2 283 kbps avg
Аудио: 48.0 kHz, AC3 Dolby Digital, 3/2 (L,C,R,l,r) + LFE ch, ~384 kbps
скриншот  скриншот  скриншот  

General
Полное имя : Добрый.вечер.2018.WEBDLRip-ylnian.avi
Формат : AVI
Формат/Информация : Audio Video Interleave
Размер файла : 1,49 Гбайт
Продолжительность : 1 ч. 19 м.
Общий поток : 2676 Кбит/сек
Программа кодирования : VirtualDubMod 1.5.10.3 | (build 2550/release)
Библиотека кодирования : VirtualDubMod build 2550/release

Видео
Идентификатор : 0
Формат : MPEG-4 Visual
Профиль формата : Advanced Simple@L5
Настройки формата : BVOP1 / Custom Matrix
Параметр BVOP формата : 1
Параметр QPel формата : Нет
Параметр GMC формата : Без точки перехода
Параметр матрицы формата : Выборочная
Идентификатор кодека : XVID
Идентификатор кодека/Подсказка : XviD
Продолжительность : 1 ч. 19 м.
Битрейт : 2283 Кбит/сек
Ширина : 720 пикселей
Высота : 304 пикселя
Соотношение сторон : 2,35:1
Частота кадров : 24,000 кадра/сек
Цветовое пространство : YUV
Субдискретизация насыщенности : 4:2:0
Битовая глубина : 8 бит
Тип развёртки : Прогрессивная
Метод сжатия : С потерями
Бит/(Пиксели*Кадры) : 0.435
Размер потока : 1,27 Гбайт (85%)
Библиотека кодирования : XviD 67

Аудио
Идентификатор : 1
Формат : AC-3
Формат/Информация : Audio Coding 3
Коммерческое название : Dolby Digital
Идентификатор кодека : 2000
Продолжительность : 1 ч. 19 м.
Вид битрейта : Постоянный
Битрейт : 384 Кбит/сек
Каналы : 6 каналов
Channel layout : L R C LFE Ls Rs
Частота : 48,0 КГц
Частота кадров : 31,250 кадров/сек (1536 SPF)
Битовая глубина : 16 бит
Метод сжатия : С потерями
Размер потока : 220 Мбайт (14%)
Выравнивание : Разделение по промежуткам
Продолжительность промежутка : 42 мс. (1,00 видеокадр)
Время предзагрузки промежутка : 500 мс.

pb.wtf



Скачать Добрый вечер через торрент http://img14.lostpic.net/2018/12/20/055cf1cca86d228010bbfb621cdbc3df.png Скачать фильм Добрый вечер через торрент бесплантно в хорошем качестве Описание: В придорожном отеле сталкиваются бандит и писатель, монахиня и проститутка. У каждого есть план на этот вечер. Спор. Ссора. Секс. ... 9.1 10 17
Info! Золотая раздача, скачанное не засчитывается.
Торрент: Зарегистрирован [2018-12-20 07:31] · скачан: 469 раз
Статус: √ проверено
Размер: 1.49 GB
Как cкачать? Как скачать Добрый вечер через торрент | qTorrent

% Раздел Тема Автор DL S | L
Наши фильмы (HD, WEB-DL 720p, 1080p) [ 2.85 GB ] Добрый вечер [2018 WEB-DL 1080p] bober100 Скачать
1 | 0

28-11-2019 20:33  

Отключить всю рекламу на сайте

    Дорогой пользователь! Огромная просьба, поблагодарите релизера, оцените раздачу и оставьте свои комментарий, если Вы скачали Добрый вечер через торрент бесплатно! Внесите свою лепту в развитие PiratBit!
    Комментировать посты могут только пользователи прошедшие не сложную регистрацию
    Показать сообщения:    

    Добрый вечер через торрент
    Скачать бесплатно Добрый вечер
    Добрый вечер скачать торрент
    Добрый вечер смотреть онлайн
    Cкачать фильм Добрый вечер бесплатно
    Добрый вечер скачать торрент в хорошем качестве
    Добрый вечер смотреть онлайн бесплатно в хорошем качестве


    Вы не можете начинать темы
    Вы не можете отвечать на сообщения
    Вы не можете редактировать свои сообщения
    Вы не можете удалять свои сообщения
    Вы не можете голосовать в опросах
    Вы не можете прикреплять файлы к сообщениям
    Вы можете скачивать файлы