Ссылка на приватное зеркало нашего сайта всего за 1$. Внимание количество ограничено!!!

2 сезон

iTunes

1 сезон

1

iTunes

iTunes

iTunes

1 сезон

RePack

30

ИГРА 18+

pack

ВАЖНО

!!Акция!!

Alien_RageХит недели

RePack

MK11
pack

Забери бонус

RePack

jed

!!Акция!!

Alien_Rage

RePack

fifa19

RePack

Assassins Creed: Odyssey

RePack

NEED FOR SPEED™ PAYBACK

4 сезон

9 сезон

Бесстыжие 9 сезон

Все сериалы

все сериалы на PB.wtf

RePack

FAR CRY 5
  

Стандарты красоты / Серии: 1-4 из 4 (Вартан Акопян, Влад Якин) [2017, Комедия, мелодрама, WEB-DLRip] pb.wtf

Стандарты красоты через торрент pb.wtf

Размер: 2.44 GB | Добавлен: 1 год 10 мес. назад | Торрент скачан:39 раз
Скачать  

20-12-2018 12:10 Стандарты красоты Скачать торрент  

Стандарты красотыГод выпуска: 2017
Страна: Россия
Жанр: Комедия, мелодрама
Продолжительность: ~ 00:47:00
Субтитры: отсутствуют

Режиссер: Вартан Акопян, Влад Якин



В ролях:

Ирина Розанова, Светлана Колпакова, Ксения Ильясова, Алексей Гришин, Анастасия Немец, Дарья Фекленко, Карина Зверева, Анна Галлямова, Анна Потебня, Наталья Тищенко

Описание:

Катерина 12 лет прожила счастливо и безмятежно, как ей казалось, в браке со своим любимым мужем. И тут, как гром среди ясного неба, для нее стала новость о том, что супруг ей изменяет. Благоверный объяснил Кате, что за годы совместной жизни она превратилась из чемпионки страны по биатлону и просто красавицы в унылую и скучную домохозяйку. Катерина в шоке, она раздавлена и унижена обвинениями мужа, ведь именно ради семьи — мужа и дочери — она когда-то забросила спортивную карьеру. Однако она принимает решение начать новую жизнь, и переезжает вместе с дочерью к своим родителям.

Качество: WEB-DLRip
Формат: AVI

Видео: XviD, ~ 1600 Кбит/с, 720х400
Аудио: Русский (AC3, 2 ch, 192 Кбит/с)
скриншот  скриншот  скриншот  скриншот  скриншот  

Общее
Полное имя : D:\Стандарты красоты (2018) .WEB-DLRip. Files-x\01. Стандарты красоты..WEB-DLRip. Files-x.avi
Формат : AVI
Формат/Информация : Audio Video Interleave
Размер файла : 619 Мбайт
Продолжительность : 47 м. 59 с.
Общий поток : 1802 Кбит/сек
Программа кодирования : VirtualDubMod 1.5.10.3 | www.virtualdub-fr.org || (build 2550/release)
Библиотека кодирования : VirtualDubMod build 2550/release

Видео
Идентификатор : 0
Формат : MPEG-4 Visual
Профиль формата : Advanced Simple@L5
Параметр BVOP формата : 1
Параметр QPel формата : Нет
Параметр GMC формата : Без точки перехода
Параметр матрицы формата : Выборочная
Идентификатор кодека : XVID
Идентификатор кодека/Подсказка : XviD
Продолжительность : 47 м. 59 с.
Битрейт : 1600 Кбит/сек
Ширина : 720 пикселей
Высота : 400 пикселей
Соотношение сторон : 16:9
Частота кадров : 25,000 кадров/сек
Цветовое пространство : YUV
Субдискретизация насыщенности : 4:2:0
Битовая глубина : 8 бит
Тип развёртки : Прогрессивная
Метод сжатия : С потерями
Бит/(Пиксели*Кадры) : 0.222
Размер потока : 549 Мбайт (89%)
Библиотека кодирования : XviD 73

Аудио
Идентификатор : 1
Формат : AC-3
Формат/Информация : Audio Coding 3
Расширение режима : CM (complete main)
Параметр Endianness формата : Big
Идентификатор кодека : 2000
Продолжительность : 47 м. 59 с.
Вид битрейта : Постоянный
Битрейт : 192 Кбит/сек
Каналы : 2 канала
Расположение каналов : Front: L R
Частота : 48,0 КГц
Частота кадров : 31,250 кадров/сек (1536 spf)
Метод сжатия : С потерями
Размер потока : 65,9 Мбайт (11%)
Выравнивание : Разделение по промежуткам
Продолжительность промежутка : 40 мс. (1,00 видеокадр)
Время предзагрузки промежутка : 500 мс.

pb.wtf



Скачать Стандарты красоты через торрент https://i106.fastpic.ru/big/2018/1217/73/44154dba5ca074eb3d28c7a4bbdc9073.jpg Скачать фильм Стандарты красоты через торрент бесплантно в хорошем качестве Описание: Катерина 12 лет прожила счастливо и безмятежно, как ей казалось, в браке со своим любимым мужем. И тут, как гром среди ясного ... 10 10 3
Торрент: Зарегистрирован [2018-12-20 12:10] · скачан: 39 раз
Статус: √ проверено
Размер: 2.44 GB
Как cкачать? Как скачать Стандарты красоты через торрент | qTorrent

% Раздел Тема Автор DL S | L
Наши сериалы [ 3.76 GB ] Стандарты красоты. Новая любовь / Сезон: 2 / Серии: 1-4 из 4 [2018 WEB-DL 1080p] bober100 Скачать
2 | 0
Наши сериалы [ 3.66 GB ] Стандарты красоты / Серии: 1-4 из 4 [2017 WEB-DL 1080p] bober100 Скачать
1 | 0
Наши сериалы [ 2.42 GB ] Стандарты красоты / Серии: 1-4 из 4 [2017 WEB-DLRip-AVC] bober100 Скачать
1 | 0

28-11-2019 20:33  

Отключить всю рекламу на сайте

    Дорогой пользователь! Огромная просьба, поблагодарите релизера, оцените раздачу и оставьте свои комментарий, если Вы скачали Стандарты красоты через торрент бесплатно! Внесите свою лепту в развитие PiratBit!
    Комментировать посты могут только пользователи прошедшие не сложную регистрацию
    Показать сообщения:    

    Стандарты красоты через торрент
    Скачать бесплатно Стандарты красоты
    Стандарты красоты скачать торрент
    Стандарты красоты смотреть онлайн
    Cкачать фильм Стандарты красоты бесплатно
    Стандарты красоты скачать торрент в хорошем качестве
    Стандарты красоты смотреть онлайн бесплатно в хорошем качестве


    Вы не можете начинать темы
    Вы не можете отвечать на сообщения
    Вы не можете редактировать свои сообщения
    Вы не можете удалять свои сообщения
    Вы не можете голосовать в опросах
    Вы не можете прикреплять файлы к сообщениям
    Вы можете скачивать файлы