новый адрес
Мега распродажа FORZA HORIZON 4 ULTIMATE+ВСЕ DLC+ОНЛАЙН всего за 499р. 349 руб. (супер цена). Внимание количество ограничено!!!

iTunes

1+1

iTunes

мы

iTunes

1

iTunes

Чернобыль

iTunes

Ральф против интернета

Лицензия

ПШазам

Лицензия

Игра престолов

Лицензия

30
pack

ВАЖНО

!!Акция!!

Alien_RageХит недели

RePack

Resident Evil 21

ИГРА 18+

pack

RePack

Metro:Exodus

!!Акция!!

Alien_Rage

RePack

fifa19

RePack

Assassins Creed: Odyssey

RePack

NEED FOR SPEED™ PAYBACK

3 сезон

9 сезон

Бесстыжие 9 сезон

Все сериалы

все сериалы на PB.wtf

RePack

FAR CRY 5
Ребята, катастрофически не хватает 1900р. для оплаты серверов за Октябрь (всвязи с блокировками трафик упал в 3 раза), 1-2р., выручайте.
  

Душа зовет (Александр Борисов, Максим Руф) [1962, СССР, комедия, SATRip-AVC от AVP Studio] pb.wtf

Душа зовет через торрент pb.wtf

Размер: 745 MB | Добавлен: 10 мес. назад | Торрент скачан:14 раз
Скачать  

20-12-2018 12:23 Душа зовет Скачать торрент  

Душа зовет
Страна: СССР
Производство: Ленфильм

Жанр: комедия
Год выпуска: 1962
Продолжительность: 00:50:31

Перевод: Не требуется
Cубтитры: нет
Оригинальная аудиодорожка: русский

Режиссер: Александр Борисов, Максим Руф

В ролях:
Александр Борисов, Юрий Толубеев, Валентина Телегина, Павел Луспекаев, Людмила Чупиро, Алексей Кожевников...
Об актёрах подробней

Описание:
Двух старых ленинградских рабочих Сухова (Юрий Толубеев) и Солянова (Александр Борисов) связывает давняя дружба — работали на одном заводе, жили по соседству. Теперь Солянов, по настоянию сына, решает уйти на пенсию. Но расстаться с родным заводом, которому старый кадровик, как оказалось, еще необходим, не так-то просто...

Исходник: DVB
Качество видео: SATRip-AVC
Формат видео: MKV

Видео: 716->761x572 (4:3), 25,000 кадров/сек, H264 ~ 1868 kbps avg, 0.182 bit/pixel
Аудио: 48 kHz, Dolby Digital AC3 2.0, 192 kbps

Раздача от:
Общее
Полное имя : Dusha.zovet.1962.SATRip-AVC_[New-team]_by_AVP_Studio.mkv
Формат : Matroska
Версия формата : Version 2
Размер файла : 745 Мбайт
Продолжительность : 50 м. 30 с.
Общий поток : 2062 Кбит/сек
Дата кодирования : UTC 2018-12-18 11:01:35
Программа кодирования : mkvmerge v6.1.0 ('Old Devil') built on Mar 4 2013 09:10:42
Библиотека кодирования : libebml v1.3.0 + libmatroska v1.4.0

Видео
Идентификатор : 1
Формат : AVC
Формат/Информация : Advanced Video Codec
Профиль формата : High@L4.1
Настройки формата : CABAC / 10 Ref Frames
Параметр CABAC формата : Да
Параметр RefFrames формата : 10 кадров
Идентификатор кодека : V_MPEG4/ISO/AVC
Продолжительность : 50 м. 30 с.
Битрейт : 1868 Кбит/сек
Ширина : 716 пикселей
Высота : 572 пикселя
Соотношение сторон : 4:3
Режим частоты кадров : Постоянный
Частота кадров : 25,000 кадров/сек
Цветовое пространство : YUV
Субдискретизация насыщенности : 4:2:0
Битовая глубина : 8 бит
Тип развёртки : Прогрессивная
Бит/(Пиксели*Кадры) : 0.182
Размер потока : 661 Мбайт (89%)
Библиотека кодирования : x264 core 157 r2932 303c484
Настройки программы : cabac=1 / ref=10 / deblock=1:-2:-1 / analyse=0x3:0x113 / me=umh / subme=10 / psy=1 / psy_rd=1.00:0.00 / mixed_ref=1 / me_range=32 / chroma_me=1 / trellis=2 / 8x8dct=1 / cqm=0 / deadzone=21,11 / fast_pskip=1 / chroma_qp_offset=-2 / threads=6 / lookahead_threads=1 / sliced_threads=0 / nr=0 / decimate=0 / interlaced=0 / bluray_compat=0 / constrained_intra=0 / bframes=8 / b_pyramid=2 / b_adapt=2 / b_bias=0 / direct=3 / weightb=1 / open_gop=0 / weightp=2 / keyint=250 / keyint_min=25 / scenecut=40 / intra_refresh=0 / rc=2pass / mbtree=0 / bitrate=1868 / ratetol=1.0 / qcomp=0.60 / qpmin=0 / qpmax=69 / qpstep=4 / cplxblur=20.0 / qblur=0.5 / ip_ratio=1.40 / pb_ratio=1.30 / aq=1:1.00
Default : Да
Forced : Нет

Аудио
Идентификатор : 2
Формат : AC-3
Формат/Информация : Audio Coding 3
Коммерческое название : Dolby Digital
Идентификатор кодека : A_AC3
Продолжительность : 50 м. 30 с.
Вид битрейта : Постоянный
Битрейт : 192 Кбит/сек
Каналы : 2 канала
Channel layout : L R
Частота : 48,0 КГц
Частота кадров : 31,250 кадров/сек (1536 SPF)
Битовая глубина : 16 бит
Метод сжатия : С потерями
Размер потока : 69,4 Мбайт (9%)
Default : Да
Forced : Нет
pb.wtf



Скачать Душа зовет через торрент http://picplus.ru/img/1812/20/0ff08e84.png Скачать фильм Душа зовет через торрент бесплантно в хорошем качестве Описание:Двух старых ленинградских рабочих Сухова (Юрий Толубеев) и Солянова (Александр Борисов) связывает давняя дружба — работали на ... 5 10 1
Торрент: Зарегистрирован [2018-12-20 12:23] · скачан: 14 раз
Статус: √ проверено
Размер: 745 MB
Как cкачать? Как скачать Душа зовет через торрент | qTorrent

% Раздел Тема Автор DL S | L
Кино СССР [ 744 MB ] Душа зовет [1962 СССР SATRip от AVP Studio] AVP Studio Скачать
1 | 0


>> Регистрируемся здесь <<






Отзывы и комментарии о схеме читаем и пишем здесь: ---> Отзывы и комментарии о схеме

Новые благодарочки в телеграм довольных пользователей:
скриншот   скриншот   скриншот   скриншот   скриншот
    Дорогой пользователь! Огромная просьба, поблагодарите релизера, оцените раздачу и оставьте свои комментарий, если Вы скачали Душа зовет через торрент бесплатно! Внесите свою лепту в развитие PiratBit!
    Комментировать посты могут только пользователи прошедшие не сложную регистрацию
    Показать сообщения:    

    Душа зовет через торрент
    Скачать бесплатно Душа зовет
    Душа зовет скачать торрент
    Душа зовет смотреть онлайн
    Cкачать фильм Душа зовет бесплатно
    Душа зовет скачать торрент в хорошем качестве
    Душа зовет смотреть онлайн бесплатно в хорошем качестве


    Вы не можете начинать темы
    Вы не можете отвечать на сообщения
    Вы не можете редактировать свои сообщения
    Вы не можете удалять свои сообщения
    Вы не можете голосовать в опросах
    Вы не можете прикреплять файлы к сообщениям
    Вы можете скачивать файлы