Anonymous, добрый вечер, присоединяйтесь к нам в Telegram!, здесь всегда актуальный адрес сайта, оперативная поддержка и многое другое!

>

5.5

iTunes

7.4

iTunes

7.9

iTunes

1

7.7

1 сезон

6.8

iTunes

7.3

1 сезон

13

6.7

1 сезон

8.3

RePack

30

ULTIMATE

pack

9.9

Лицензия

ВАЖНО

ИГРА 18+

pack

7.3

RePack

MK11

7.7

RePack

jed

7.8

RePack

fifa19

8.5

RePack

RDR2

RePack

NEED FOR SPEED™ PAYBACK

4 сезон

9 сезон

Бесстыжие 9 сезон

Все сериалы

все сериалы на PB.wtf

RePack

FAR CRY 5

Anonymous, добрый вечер, мы катастрофически не успеваем собрать деньги на оплату серверов, помогите нам пожалуйста 5,10,15р., для нас важна любая помощь . В качестве благодарности мы отключим Вам всю рекламу на сайте (укажите свой ник в строку Ваше имя)!

×
  
Magnet ссылка

Бонус / Сезон: 1 / Серии : 1-16 из 16 (Валерия Гай Германика) [2018, Драма, музыка, WEB-DL 720p] pb.wtf

Бонус через торрент pb.wtf

Размер: 18.59 GB | Добавлен: 2 года 10 мес. назад | Торрент скачан:42 раза
Смотреть онлайн Бонус | Скачать    Ребята, помогите собрать деньги на оплату серверов!!!

20-12-2018 17:03 Бонус Скачать торрент  

Бонус
Год выпуска: 2018
Страна: Россия
Жанр: Драма, музыка
Продолжительность: ~ 00:36:00
Субтитры: отсутствуют

Режиссер: Валерия Гай Германика



В ролях:

Александр Сударев, Артем Сучков, Дмитрий Смирнов (IV), Павел Комаров (II), Варвара Назарова, Антон Адасинский, Валерий Полиенко, Юлия Ауг, Светлана Лимпер, Лана Райдер, Григорий Чабан, Евгений Смирнов-Иваницкий, Александр Логинов (III), Денис Фартовый, Екатерина Васильева (V)

Описание:

Юный рэпер из провинции по прозвищу Бонус отправляется покорять столицу, где влюбляется в дочь известного бизнесмена. Но Москва слезам и рифмам не верит: вместе с первыми выступлениями Бонусу предстоит пережить несчастную любовь, конфликты с отцом девушки, взлеты и падения на фоне столичной рэп-тусовки.


Качество: WEB-DL 720p
Формат: MKV

Видео: 1280х576 (16:9), 24 fps, AVC MPEG-4 (x264), High@L4.1 ~ 4000 kbps avg, 0.152 bit/pixel
Аудио: AC3, 2 ch, 192 Кбит/с
скриншот  скриншот  скриншот  скриншот  

Общее
Уникальный идентификатор : 202523125691323174954803433700966856929 (0x985C89042D3E852F9B22B454711CF8E1)
Полное имя : D:\Bonus.s01.2018.WEB-DL.(720p).Nikolspup\Bonus.s01.(01.seriya).2018.WEB-DL.(720p).Nikolspup.mkv
Формат : Matroska
Версия формата : Version 4 / Version 2
Размер файла : 1,04 Гбайт
Продолжительность : 35 м. 34 с.
Общий поток : 4192 Кбит/сек
Дата кодирования : UTC 2018-09-20 18:40:08
Программа кодирования : mkvmerge v7.8.0 ('River Man') 32bit built on Mar 27 2015 16:18:02
Библиотека кодирования : libebml v1.3.1 + libmatroska v1.4.2

Видео
Идентификатор : 1
Формат : AVC
Формат/Информация : Advanced Video Codec
Профиль формата : High@L4.1
Параметр CABAC формата : Да
Параметр RefFrames формата : 9 кадров
Идентификатор кодека : V_MPEG4/ISO/AVC
Продолжительность : 35 м. 34 с.
Битрейт : 4000 Кбит/сек
Ширина : 1280 пикселей
Высота : 576 пикселей
Соотношение сторон : 2,222
Режим частоты кадров : Постоянный
Частота кадров : 25,000 кадров/сек
Цветовое пространство : YUV
Субдискретизация насыщенности : 4:2:0
Битовая глубина : 8 бит
Тип развёртки : Прогрессивная
Бит/(Пиксели*Кадры) : 0.217
Размер потока : 996 Мбайт (93%)
Библиотека кодирования : x264 core 146 r2538 121396c
Настройки программы : cabac=1 / ref=9 / deblock=1:-2:-1 / analyse=0x3:0x133 / me=umh / subme=9 / psy=1 / psy_rd=1.00:0.20 / mixed_ref=1 / me_range=32 / chroma_me=1 / trellis=2 / 8x8dct=1 / cqm=0 / deadzone=21,11 / fast_pskip=1 / chroma_qp_offset=-3 / threads=16 / lookahead_threads=8 / sliced_threads=0 / nr=0 / decimate=1 / interlaced=0 / bluray_compat=0 / constrained_intra=0 / bframes=11 / b_pyramid=2 / b_adapt=2 / b_bias=0 / direct=1 / weightb=1 / open_gop=0 / weightp=2 / keyint=250 / keyint_min=25 / scenecut=40 / intra_refresh=0 / rc=2pass / mbtree=0 / bitrate=4000 / ratetol=1.0 / qcomp=0.60 / qpmin=0 / qpmax=69 / qpstep=4 / cplxblur=20.0 / qblur=0.5 / ip_ratio=1.40 / pb_ratio=1.30 / aq=3:1.00
Default : Нет
Forced : Нет
Цветовой диапазон : Limited
Основные цвета : BT.709
Характеристики трансфера : BT.709
Коэффициенты матрицы : BT.709

Аудио
Идентификатор : 2
Формат : AC-3
Формат/Информация : Audio Coding 3
Расширение режима : CM (complete main)
Параметр Endianness формата : Big
Идентификатор кодека : A_AC3
Продолжительность : 35 м. 34 с.
Вид битрейта : Постоянный
Битрейт : 192 Кбит/сек
Каналы : 2 канала
Расположение каналов : Front: L R
Частота : 48,0 КГц
Частота кадров : 31,250 кадров/сек (1536 spf)
Метод сжатия : С потерями
Размер потока : 48,8 Мбайт (5%)
Язык : Russian
Default : Да
Forced : Да

pb.wtf



Скачать Бонус через торрент https://c.radikal.ru/c07/1809/2a/3a043a08a25c.jpg Скачать, смотреть онлайн Бонус бесплантно в хорошем качестве Описание: Юный рэпер из провинции по прозвищу Бонус отправляется покорять столицу, где влюбляется в дочь известного бизнесмена. Но Москва ... 10 10 2
Торрент: Зарегистрирован [2018-12-20 17:03] · скачан: 42 раз
Статус: √ проверено
Размер: 18.59 GB
Как cкачать? Как скачать Бонус через торрент | UTorrent

% Раздел Тема Автор DL S | L
Зарубежные сериалы [ 85.05 GB ] Леденящие душу Сабрины / Chilling Adventures of Sabrina / Сезон: 1 / Серии: 1-10 из 10 + Бонус [2018 WEBRip-HEVC 2160p] MVO [LostFilm] bober100 Скачать
1 | 0
TNT serials [ 7.95 GB ] Бонус / Сезон: 1 / Серии : 1-16 из 16 [2018 музыка WEB-DLRip-AVC] bober100 Скачать
1 | 0
TNT serials [ 5.34 GB ] Бонус / Сезон: 1 / Серии: [2018 музыка WEBRip-AVC] [Русский] R.G.Generalfilm White Smoke Скачать
1 | 0
TNT serials [ 8.19 GB ] Бонус / Сезон: 1 / Серии : 1-16 из 16 [2018 музыка WEB-DLRip] bober100 Скачать
1 | 0
TNT serials [ 22.76 GB ] Бонус / Сезон: 1 / Серии : 1-16 из 16 [2018 музыка WEB-DL 1080p] bober100 Скачать
2 | 0
Мультсериалы [ 6.7 GB ] Шиммер и Шайн / Shimmer and Shine / Сезон 1 / Серии: 1-19 из 19 + бонус [2015-2016 мультфильм HDTVRip-AVC by keeper.52] DU keeper.52 Скачать
2 | 0
Мультсериалы [ 6.73 GB ] Шиммер и Шайн / Shimmer and Shine / Сезон 1 / Серии: 1-19 из 19 + бонус [2015-2016 мультфильм HDTVRip by keeper.52] DUB keeper.52 Скачать
2 | 0

28-11-2019 20:33  

Отключить всю рекламу на сайте

    Дорогой пользователь! Огромная просьба, поблагодарите релизера, оцените раздачу и оставьте свои комментарий, если Вы скачали Бонус через торрент бесплатно!
    Комментировать посты могут только пользователи прошедшие не сложную регистрацию
    Показать сообщения:    

    Бонус через торрент
    Скачать бесплатно Бонус
    Бонус скачать торрент
    Бонус смотреть онлайн
    Cкачать фильм Бонус бесплатно
    Бонус скачать торрент в хорошем качестве
    Бонус смотреть онлайн бесплатно в хорошем качестве


    Вы не можете начинать темы
    Вы не можете отвечать на сообщения
    Вы не можете редактировать свои сообщения
    Вы не можете удалять свои сообщения
    Вы не можете голосовать в опросах
    Вы не можете прикреплять файлы к сообщениям
    Вы можете скачивать файлы