Ссылка на приватное зеркало всего за 1$. Внимание количество ограничено!!!

OK

1+1

iTunes

мы

OK

1

WEB-DLRip

Джокер

Пифагор

Ведьмак / The Witcher сериал

Лицензия

ПШазам

ОК

Оно 2

iTunes

30
pack

Вам бонус

ВАЖНО

!!Акция!!

Alien_RageХит недели

RePack

Resident Evil 21

ИГРА 18+

pack

RePack

jed

!!Акция!!

Alien_Rage

RePack

fifa19

RePack

Assassins Creed: Odyssey

RePack

NEED FOR SPEED™ PAYBACK

4 сезон

9 сезон

Бесстыжие 9 сезон

Все сериалы

все сериалы на PB.wtf

RePack

FAR CRY 5
  

Паскаль: Фильм / Paskal: The Movie (Адриан Тэ) [2018, боевик, драма, WEB-DL 720p] MVO [КОЛОБОК] pb.wtf

Паскаль: Фильм через торрент pb.wtf

Размер: 4.19 GB | Добавлен: 1 год 1 мес. назад | Торрент скачан:189 раз
Скачать  

20-12-2018 18:49 Паскаль: Фильм Скачать торрент  

Паскаль: Фильм / Paskal: The Movie
Год выпуска: 2018
Страна: Малайзия
Жанр: боевик, драма
Продолжительность: 01:51:26
Перевод: Любительский (многоголосый) | КОЛОБОК
Субтитры: отсутствуют

Режиссер: Адриан Тэ

rating

В ролях:

Adi Afendi, Ammar Alfian, Hairul Azreen, Тайгер Чэнь, Jasmine Suraya Chin, Azwan Gaspar, Taufiq Hanafi, Хенли Хий, Hafizul Kamal, Gambit Saifullah

Описание:

Этот фильм, основанный на реальных событиях, повествует о героических подвигах и личных жертвах доблестного спецподразделения ВМС Малайзии ПАСКАЛЬ.

Качество: WEB-DL 720p
Формат: MKV

Видео: h.264,4 996 Кбит/с, 1280x536
Аудио#1: Русский, (AC3, 2 ch, 384 Кбит/с)
скриншот  скриншот  скриншот  

Общее
Уникальный идентификатор : 182696346579651361990043923323543580196 (0x897209557E8C4190AFF5F40398836E24)
Полное имя : D:\Paskal.2018.Pk.WEB-DL.72Op.mkv
Формат : Matroska
Версия формата : Version 2
Размер файла : 4,19 Гбайт
Продолжительность : 1 ч. 51 м.
Режим общего битрейта : Переменный
Общий поток : 5382 Кбит/сек
Дата кодирования : UTC 2018-12-20 17:31:16
Программа кодирования : mkvmerge v8.3.0 ('Over the Horizon') 64bit
Библиотека кодирования : libebml v1.3.1 + libmatroska v1.4.2

Видео
Идентификатор : 1
Формат : AVC
Формат/Информация : Advanced Video Codec
Профиль формата : High@L4.1
Параметр CABAC формата : Да
Параметр RefFrames формата : 4 кадра
Идентификатор кодека : V_MPEG4/ISO/AVC
Продолжительность : 1 ч. 51 м.
Вид битрейта : Переменный
Битрейт : 4996 Кбит/сек
Максимальный битрейт : 5500 Кбит/сек
Ширина : 1280 пикселей
Высота : 536 пикселей
Соотношение сторон : 2,40:1
Режим частоты кадров : Постоянный
Частота кадров : 23,976 (24000/1001) кадра/сек
Стандарт вещания : Component
Цветовое пространство : YUV
Субдискретизация насыщенности : 4:2:0
Битовая глубина : 8 бит
Тип развёртки : Прогрессивная
Бит/(Пиксели*Кадры) : 0.297
Размер потока : 3,81 Гбайт (91%)
Default : Да
Forced : Нет
Цветовой диапазон : Limited
Основные цвета : BT.709
Характеристики трансфера : BT.709
Коэффициенты матрицы : BT.709

Аудио
Идентификатор : 2
Формат : AC-3
Формат/Информация : Audio Coding 3
Расширение режима : CM (complete main)
Параметр Endianness формата : Big
Идентификатор кодека : A_AC3
Продолжительность : 1 ч. 51 м.
Вид битрейта : Постоянный
Битрейт : 384 Кбит/сек
Каналы : 2 канала
Расположение каналов : Front: L R
Частота : 48,0 КГц
Частота кадров : 31,250 кадров/сек (1536 spf)
Метод сжатия : С потерями
Размер потока : 306 Мбайт (7%)
Default : Да
Forced : Нет

pb.wtf



Скачать Паскаль: Фильм через торрент http://img14.lostpic.net/2018/12/20/d0e2bc86bdbb347c4576054bc46e2ed8.jpg Скачать фильм Паскаль: Фильм через торрент бесплантно в хорошем качестве Описание: Этот фильм, основанный на реальных событиях, повествует о героических подвигах и личных жертвах доблестного спецподразделения ВМС ... 9.8 10 5
Торрент: Зарегистрирован [2018-12-20 18:49] · скачан: 189 раз
Статус: T временная
Размер: 4.19 GB
Как cкачать? Как скачать Паскаль: Фильм через торрент | qTorrent

% Раздел Тема Автор DL S | L
T Фильмы (мультфильмы) cо спонсором показа (Новинки AVI/MKV) [ 1.37 GB ] Паскаль: Фильм / Paskal: The Movie [2018 WEB-DLRip] MVO [КОЛОБОК] bober100 Скачать
2 | 0

28-11-2019 20:33  

Отключить всю рекламу на сайте

    Дорогой пользователь! Огромная просьба, поблагодарите релизера, оцените раздачу и оставьте свои комментарий, если Вы скачали Паскаль: Фильм через торрент бесплатно! Внесите свою лепту в развитие PiratBit!
    Комментировать посты могут только пользователи прошедшие не сложную регистрацию
    Показать сообщения:    

    Паскаль: Фильм через торрент
    Скачать бесплатно Паскаль: Фильм
    Паскаль: Фильм скачать торрент
    Паскаль: Фильм смотреть онлайн
    Cкачать фильм Паскаль: Фильм бесплатно
    Паскаль: Фильм скачать торрент в хорошем качестве
    Паскаль: Фильм смотреть онлайн бесплатно в хорошем качестве


    Вы не можете начинать темы
    Вы не можете отвечать на сообщения
    Вы не можете редактировать свои сообщения
    Вы не можете удалять свои сообщения
    Вы не можете голосовать в опросах
    Вы не можете прикреплять файлы к сообщениям
    Вы можете скачивать файлы