1 сезон

1 сезон

iTunes

1

КиноПоиск HD

Кинопоиск HD

iTunes

13

1 сезон

RePack

30

Ultimate

ВАЖНО

ИГРА 18+

pack

RePack

MK11
pack

Легкие деньги

RePack

jed

RePack

fifa19

RePack

RDR2

RePack

NEED FOR SPEED™ PAYBACK

4 сезон

9 сезон

Бесстыжие 9 сезон

Все сериалы

все сериалы на PB.wtf

RePack

FAR CRY 5
  
Magnet ссылка

Колыбель кошмаров / Cradle of Fear (Алекс Чендон) [2001 г., ужасы, DVDRip] MVO pb.wtf

Колыбель кошмаров через торрент pb.wtf

Размер: 1.37 GB | Добавлен: 2 года 3 мес. назад | Торрент скачан:19 раз
Скачать  

20-12-2018 20:09 Колыбель кошмаров Скачать торрент  

Колыбель кошмаров / Cradle of Fear
Год выпуска: 2001

Страна: Великобритания

Жанр: Ужасы

Продолжительность: 02:00:00

Перевод: Профессиональный (многоголосый)

Режиссер: Алекс Чендон

rating

В ролях: Дэни Филт, Эмили Бут, Стюарт Лэйн, Эдмунд Дин, Эйлин Дэйли, Ребекка Иден, Луи Браунселл, Дэвид МакЭвен, Уилли Эванс, Эмма Райс

Описание: Ночной Лондон полон зловещих тайн и тёмных секретов, но существует один «человек» который знает их наизусть… После рокового свидания со странным незнакомцем, загадочную красавицу Мэл всюду приследуют кошмарные видения. Она не подозревает, что стала любовницей посланца ада и теперь носит его дитя… Воровки Софи и Эмма проникают в жилище одинокого старика. Жестоко разделавшись с хозяином дома, Софи убивает Эмму, чтобы присвоить добычу. Она покидает место преступления, не догадываясь, что подруга не намерена прощать ей свою смерть… У Ника есть всё, что могут дать деньги. Почти всё.
Качество: DVDRip
Формат: AVI
Видео кодек: DivX
Аудио кодек: AC3
Видео: DivX, 1239 Кбит/с, 720x448
Аудио: Русский, AC3, 6 ch, 384 Кбит/с
Видео
Идентификатор : 0
Формат : MPEG-4 Visual
Настройки формата : BVOP1
Параметр BVOP формата : 1
Параметр QPel формата : Нет
Параметр GMC формата : Без точки перехода
Параметр матрицы формата : Default (H.263)
Режим смешивания : Сжатый битовый поток
Идентификатор кодека : DX50
Идентификатор кодека/Подсказка : DivX 5
Продолжительность : 1 ч. 59 м.
Битрейт : 1239 Кбит/сек
Номинальный битрейт : 1128 Кбит/сек
Ширина : 720 пикселей
Высота : 448 пикселей
Соотношение сторон : 16:10
Частота кадров : 25,000 кадров/сек
Цветовое пространство : YUV
Субдискретизация насыщенности : 4:2:0
Битовая глубина : 8 бит
Тип развёртки : Прогрессивная
Метод сжатия : С потерями
Бит/(Пиксели*Кадры) : 0.154
Размер потока : 1,04 Гбайт (76%)
Библиотека кодирования : DivX 6.4.0 (UTC 2006-10-03)

Аудио
Идентификатор : 1
Формат : AC-3
Формат/Информация : Audio Coding 3
Коммерческое название : Dolby Digital
Идентификатор кодека : 2000
Продолжительность : 1 ч. 59 м.
Вид битрейта : Постоянный
Битрейт : 384 Кбит/сек
Каналы : 6 каналов
Channel layout : L R C LFE Ls Rs
Частота : 48,0 КГц
Частота кадров : 31,250 кадров/сек (1536 SPF)
Битовая глубина : 16 бит
Метод сжатия : С потерями
Размер потока : 330 Мбайт (24%)
Выравнивание : Разделение по промежуткам
Продолжительность промежутка : 96 мс. (2,40 видеокадра)
Время предзагрузки промежутка : 96 мс.
Язык : Russian
ServiceKind/String : Complete Main

скриншот   скриншот   скриншот   скриншот   скриншот   скриншот  

pb.wtf



Скачать Колыбель кошмаров через торрент https://pic1.kartinco.top/images/12/k8y6e.jpg Скачать фильм Колыбель кошмаров через торрент бесплантно в хорошем качестве Описание: Ночной Лондон полон зловещих тайн и тёмных секретов, но существует один «человек» который знает их наизусть… После рокового ... 10 10 1
Торрент: Зарегистрирован [2018-12-20 20:09] · скачан: 19 раз
Статус: √ проверено
Размер: 1.37 GB
Как cкачать? Как скачать Колыбель кошмаров через торрент | UTorrent

28-11-2019 20:33  

Отключить всю рекламу на сайте

    Дорогой пользователь! Огромная просьба, поблагодарите релизера, оцените раздачу и оставьте свои комментарий, если Вы скачали Колыбель кошмаров через торрент бесплатно! Внесите свою лепту в развитие PiratBit!
    Комментировать посты могут только пользователи прошедшие не сложную регистрацию
    Показать сообщения:    

    Колыбель кошмаров через торрент
    Скачать бесплатно Колыбель кошмаров
    Колыбель кошмаров скачать торрент
    Колыбель кошмаров смотреть онлайн
    Cкачать фильм Колыбель кошмаров бесплатно
    Колыбель кошмаров скачать торрент в хорошем качестве
    Колыбель кошмаров смотреть онлайн бесплатно в хорошем качестве


    Вы не можете начинать темы
    Вы не можете отвечать на сообщения
    Вы не можете редактировать свои сообщения
    Вы не можете удалять свои сообщения
    Вы не можете голосовать в опросах
    Вы не можете прикреплять файлы к сообщениям
    Вы можете скачивать файлы