2 сезон

iTunes

MVO

1

2 сезон

iTunes

iTunes

1 сезон

RePack

30

Новинка

ВАЖНО

ИГРА 18+

pack

RePack

MK11
pack

Легкие деньги

RePack

jed

RePack

fifa19

RePack

RDR2

RePack

NEED FOR SPEED™ PAYBACK

4 сезон

9 сезон

Бесстыжие 9 сезон

Все сериалы

все сериалы на PB.wtf

RePack

FAR CRY 5

Anonymous, добрый вечер, мы не успеваем собрать деньги на оплату серверов за декабрь и январь, помогите нам пожалуйста в это трудное время. В качестве благодарности мы отключим Вам всю рекламу на сайте (укажите свой ник в строку Ваше имя)!

×
  
Magnet ссылка

Закону тут не место / L'ora legale (Сальво Фикарра, Валентино Пиконе) [2017, комедия, BDRip] MVO [iTunes] pb.wtf

Закону тут не место через торрент pb.wtf

Размер: 1.45 GB | Добавлен: 2 года 1 мес. назад | Торрент скачан:255 раз
Скачать  

21-12-2018 04:36 Закону тут не место Скачать торрент  

Закону тут не место / L'ora legale Год выпуска: 2017
Страна: Италия
Жанр: комедия
Продолжительность: 01:28:55
Перевод: Профессиональный многоголосый | iTunes
Субтитры: русские, итальянские | отдельными файлами

Режиссер: Сальво Фикарра, Валентино Пиконе

rating

В ролях:

Сальво Фикарра, Валентино Пиконе, Винченцо Амато, Антонио Катания, Серджо Фришия, Лео Гульотта, Алессандро Ройа

Описание:

Сальво Фикарра, Валентино Пиконе, Винченцо Амато, Антонио Катания, Серджо Фришия, Лео Гульотта, Алессандро Ройа
Жители маленького сицилийского городка устали от коррупции и беспредела властей и выбрали себе нового мэра — такого честного, каких не видел мир. Новоизбранный глава администрации даёт слово бороться со всем, что противоречит закону — и это не просто красивые слова для агитации. Он обещает горожанам чистые улицы, велодорожки, бесплатную медицину, но оказывается, не все жители городка готовы к таким переменам. Особенно недовольны зятья нового мэра, которые привыкли к легкой жизни при прошлой власти. Они решают вернуть всё на круги своя и придумывают коварный план...

Качество: BDRip
Формат: AVI

Видео: 720x304 (2.35:1), 25.000 fps, XviD build 64 ~1 750 kbps avg
Аудио#1: 48.0 kHz, AC3 Dolby Digital, 2/0 (L,R) ch, ~192 kbps | RUS / MVO / iTunes
Аудио#2: 48.0 kHz, AC3 Dolby Digital, 3/2 (L,C,R,l,r) + LFE ch, ~384 kbps | ITA
скриншот  скриншот  скриншот  

General
Полное имя : Lora.legale.2017.BDRip-ylnian.avi
Формат : AVI
Формат/Информация : Audio Video Interleave
Размер файла : 1,45 Гбайт
Продолжительность : 1 ч. 28 м.
Общий поток : 2340 Кбит/сек
Программа кодирования : VirtualDubMod 1.5.10.3 | (build 2550/release)
Библиотека кодирования : VirtualDubMod build 2550/release

Видео
Идентификатор : 0
Формат : MPEG-4 Visual
Профиль формата : Advanced Simple@L5
Настройки формата : BVOP1 / Custom Matrix
Параметр BVOP формата : 1
Параметр QPel формата : Нет
Параметр GMC формата : Без точки перехода
Параметр матрицы формата : Выборочная
Идентификатор кодека : XVID
Идентификатор кодека/Подсказка : XviD
Продолжительность : 1 ч. 28 м.
Битрейт : 1750 Кбит/сек
Ширина : 720 пикселей
Высота : 304 пикселя
Соотношение сторон : 2,35:1
Частота кадров : 25,000 кадров/сек
Цветовое пространство : YUV
Субдискретизация насыщенности : 4:2:0
Битовая глубина : 8 бит
Тип развёртки : Прогрессивная
Метод сжатия : С потерями
Бит/(Пиксели*Кадры) : 0.320
Размер потока : 1,09 Гбайт (75%)
Библиотека кодирования : XviD 64

Аудио #1
Идентификатор : 1
Формат : AC-3
Формат/Информация : Audio Coding 3
Коммерческое название : Dolby Digital
Идентификатор кодека : 2000
Продолжительность : 1 ч. 28 м.
Вид битрейта : Постоянный
Битрейт : 192 Кбит/сек
Каналы : 2 канала
Channel layout : L R
Частота : 48,0 КГц
Частота кадров : 31,250 кадров/сек (1536 SPF)
Битовая глубина : 16 бит
Метод сжатия : С потерями
Размер потока : 122 Мбайт (8%)
Выравнивание : Разделение по промежуткам
Продолжительность промежутка : 40 мс. (1,00 видеокадр)
Время предзагрузки промежутка : 500 мс.
Заголовок : RUS - MVO - iTunes

Аудио #2
Идентификатор : 2
Формат : AC-3
Формат/Информация : Audio Coding 3
Коммерческое название : Dolby Digital
Идентификатор кодека : 2000
Продолжительность : 1 ч. 28 м.
Вид битрейта : Постоянный
Битрейт : 384 Кбит/сек
Каналы : 6 каналов
Channel layout : L R C LFE Ls Rs
Частота : 48,0 КГц
Частота кадров : 31,250 кадров/сек (1536 SPF)
Битовая глубина : 16 бит
Метод сжатия : С потерями
Размер потока : 244 Мбайт (16%)
Выравнивание : Разделение по промежуткам
Продолжительность промежутка : 40 мс. (1,00 видеокадр)
Время предзагрузки промежутка : 500 мс.
Заголовок : Original

pb.wtf



Скачать Закону тут не место через торрент http://img15.lostpic.net/2018/12/21/ff647d24c93d95874c33eff688909ee2.png Скачать фильм Закону тут не место через торрент бесплантно в хорошем качестве Описание: Сальво Фикарра, Валентино Пиконе, Винченцо Амато, Антонио Катания, Серджо Фришия, Лео Гульотта, Алессандро Ройа Жители маленького ... 9.6 10 7
Торрент: Зарегистрирован [2018-12-21 04:36] · скачан: 255 раз
Статус: √ проверено
Размер: 1.45 GB
Как cкачать? Как скачать Закону тут не место через торрент | UTorrent

28-11-2019 20:33  

Отключить всю рекламу на сайте

21-12-2018 10:11 Закону тут не место Скачать торрент  

Описание картины , прям про Володю Пупкина pb.wtf



22-12-2018 06:55 Закону тут не место Скачать торрент  

Ребят а как фильм то вообще? Хорошая комедия или как? Хочется прям хорошую посмотреть а что не знаю) Заранее спасибо за ответ.pb.wtf



    Дорогой пользователь! Огромная просьба, поблагодарите релизера, оцените раздачу и оставьте свои комментарий, если Вы скачали Закону тут не место через торрент бесплатно! Внесите свою лепту в развитие PiratBit!
    Комментировать посты могут только пользователи прошедшие не сложную регистрацию
    Показать сообщения:    

    Закону тут не место через торрент
    Скачать бесплатно Закону тут не место
    Закону тут не место скачать торрент
    Закону тут не место смотреть онлайн
    Cкачать фильм Закону тут не место бесплатно
    Закону тут не место скачать торрент в хорошем качестве
    Закону тут не место смотреть онлайн бесплатно в хорошем качестве


    Вы не можете начинать темы
    Вы не можете отвечать на сообщения
    Вы не можете редактировать свои сообщения
    Вы не можете удалять свои сообщения
    Вы не можете голосовать в опросах
    Вы не можете прикреплять файлы к сообщениям
    Вы можете скачивать файлы