Ссылка на приватное зеркало нашего сайта всего за 1$. Внимание количество ограничено!!!

2 сезон

iTunes

1 сезон

1

iTunes

iTunes

iTunes

1 сезон

RePack

30

ИГРА 18+

pack

ВАЖНО

!!Акция!!

Alien_RageХит недели

RePack

MK11
pack

Забери бонус

RePack

jed

!!Акция!!

Alien_Rage

RePack

fifa19

RePack

Assassins Creed: Odyssey

RePack

NEED FOR SPEED™ PAYBACK

4 сезон

9 сезон

Бесстыжие 9 сезон

Все сериалы

все сериалы на PB.wtf

RePack

FAR CRY 5
  

Обмани себя / Серии: 1-4 из 4 (Тарас Дударь) [2018, Детектив, криминал, комедия, WEBRip-AVC] pb.wtf

Обмани себя через торрент pb.wtf

Размер: 2.3 GB | Добавлен: 1 год 10 мес. назад | Торрент скачан:62 раза
Скачать  

21-12-2018 05:08 Обмани себя Скачать торрент  

Обмани себя Год выпуска: 2018
Страна: Россия, Украина
Жанр: Детектив, криминал, комедия
Продолжительность: ~ 00:45:31
Перевод: не требуется
Субтитры: отсутствуют

Режиссер: Тарас Дударь

В ролях:

Роза Хайруллина, Павел Баршак, Катя Тышкевич, Валентин Томусяк, Михаил Кукуюк

Описание:

Главный герой - не только художник, но и настоящий аферист. Его картины-копии не всякий эксперт отличит от оригинала. Пока подделка висит во многих галереях страны, настоящее произведение искусства "уплывает" в частную коллекцию подпольных любителей живописи. Все это – и виртуозные кражи, и тщательные подделки – дело рук одного человека – Андрея Бойко...

Качество: WEBRip-AVC
Формат: MKV

Видео: 1024x576 (16:9), 25 fps, AVC MPEG-4 (x264), High@L4.1 ~ 1600 kbps , 0.109 bit/pixel
Аудио: AC3, 2 ch, 192 Кбит/с
скриншот  скриншот  скриншот  скриншот  скриншот  

Общее
Уникальный идентификатор : 252496832188914614598482205866861778623 (0xBDF51EF9B21D6D3189DEB97E843FD6BF)
Полное имя : C:\Обмани себя.(2018).WEBRip.(AVC).Files-x\01.Обмани себя.(2018).WEBRip.(AVC).by.Серый1779.Files-x.mkv
Формат : Matroska
Версия формата : Version 2
Размер файла : 584 Мбайт
Продолжительность : 45 м. 31 с.
Общий поток : 1793 Кбит/сек
Дата кодирования : UTC 2018-12-18 01:09:36
Программа кодирования : mkvmerge v7.8.0 ('River Man') 32bit built on Apr 3 2015 12:11:22
Библиотека кодирования : libebml v1.3.1 + libmatroska v1.4.2

Видео
Идентификатор : 1
Формат : AVC
Формат/Информация : Advanced Video Codec
Профиль формата : High@L4.1
Настройки формата : CABAC / 9 Ref Frames
Параметр CABAC формата : Да
Параметр RefFrames формата : 9 кадров
Идентификатор кодека : V_MPEG4/ISO/AVC
Продолжительность : 45 м. 31 с.
Битрейт : 1600 Кбит/сек
Ширина : 1024 пикселя
Высота : 576 пикселей
Соотношение сторон : 16:9
Режим частоты кадров : Постоянный
Частота кадров : 25,000 кадров/сек
Цветовое пространство : YUV
Субдискретизация насыщенности : 4:2:0
Битовая глубина : 8 бит
Тип развёртки : Прогрессивная
Бит/(Пиксели*Кадры) : 0.109
Размер потока : 510 Мбайт (87%)
Библиотека кодирования : x264 core 146 r2538 121396c
Настройки программы : cabac=1 / ref=9 / deblock=1:-2:-1 / analyse=0x3:0x133 / me=umh / subme=9 / psy=1 / psy_rd=1.00:0.15 / mixed_ref=1 / me_range=32 / chroma_me=1 / trellis=2 / 8x8dct=1 / cqm=0 / deadzone=21,11 / fast_pskip=0 / chroma_qp_offset=-3 / threads=18 / lookahead_threads=3 / sliced_threads=0 / nr=0 / decimate=1 / interlaced=0 / bluray_compat=0 / constrained_intra=0 / bframes=9 / b_pyramid=2 / b_adapt=2 / b_bias=0 / direct=1 / weightb=1 / open_gop=0 / weightp=2 / keyint=250 / keyint_min=25 / scenecut=40 / intra_refresh=0 / rc=2pass / mbtree=0 / bitrate=1600 / ratetol=1.0 / qcomp=0.60 / qpmin=0 / qpmax=69 / qpstep=4 / cplxblur=20.0 / qblur=0.5 / ip_ratio=1.40 / pb_ratio=1.30 / aq=2:1.00
Default : Да
Forced : Нет
Цветовой диапазон : Limited
Основные цвета : BT.709
Характеристики трансфера : BT.709
Коэффициенты матрицы : BT.709

Аудио
Идентификатор : 2
Формат : AC-3
Формат/Информация : Audio Coding 3
Коммерческое название : Dolby Digital
Идентификатор кодека : A_AC3
Продолжительность : 45 м. 31 с.
Вид битрейта : Постоянный
Битрейт : 192 Кбит/сек
Каналы : 2 канала
Channel layout : L R
Частота : 48,0 КГц
Частота кадров : 31,250 кадров/сек (1536 SPF)
Битовая глубина : 16 бит
Метод сжатия : С потерями
Размер потока : 62,5 Мбайт (11%)
ServiceKind/String : Complete Main
Default : Да
Forced : Нет

pb.wtf



Скачать Обмани себя через торрент https://i106.fastpic.ru/big/2018/1218/42/944d2f5e6c9dedb874824a586f7bd542.jpg Скачать фильм Обмани себя через торрент бесплантно в хорошем качестве Описание: Главный герой - не только художник, но и настоящий аферист. Его картины-копии не всякий эксперт отличит от оригинала. Пока ... 9.7 10 3
Торрент: Зарегистрирован [2018-12-21 05:08] · скачан: 62 раз
Статус: √ проверено
Размер: 2.3 GB
Как cкачать? Как скачать Обмани себя через торрент | qTorrent

% Раздел Тема Автор DL S | L
Наши сериалы [ 4.1 GB ] Обмани себя / Серии: 1-4 из 4 [2018 WEBRip 720p] bober100 Скачать
1 | 0

28-11-2019 20:33  

Отключить всю рекламу на сайте

    Дорогой пользователь! Огромная просьба, поблагодарите релизера, оцените раздачу и оставьте свои комментарий, если Вы скачали Обмани себя через торрент бесплатно! Внесите свою лепту в развитие PiratBit!
    Комментировать посты могут только пользователи прошедшие не сложную регистрацию
    Показать сообщения:    

    Обмани себя через торрент
    Скачать бесплатно Обмани себя
    Обмани себя скачать торрент
    Обмани себя смотреть онлайн
    Cкачать фильм Обмани себя бесплатно
    Обмани себя скачать торрент в хорошем качестве
    Обмани себя смотреть онлайн бесплатно в хорошем качестве


    Вы не можете начинать темы
    Вы не можете отвечать на сообщения
    Вы не можете редактировать свои сообщения
    Вы не можете удалять свои сообщения
    Вы не можете голосовать в опросах
    Вы не можете прикреплять файлы к сообщениям
    Вы можете скачивать файлы