Ссылка на приватное зеркало нашего сайта всего за 1$. Внимание количество ограничено!!!

2 сезон

iTunes

1 сезон

1

iTunes

iTunes

iTunes

1 сезон

RePack

30

ИГРА 18+

pack

ВАЖНО

!!Акция!!

Alien_RageХит недели

RePack

MK11
pack

Забери бонус

RePack

jed

!!Акция!!

Alien_Rage

RePack

fifa19

RePack

Assassins Creed: Odyssey

RePack

NEED FOR SPEED™ PAYBACK

4 сезон

9 сезон

Бесстыжие 9 сезон

Все сериалы

все сериалы на PB.wtf

RePack

FAR CRY 5
  

Обмани себя / Серии: 1-4 из 4 (Тарас Дударь) [2018, Детектив, криминал, комедия, WEBRip 720p] pb.wtf

Обмани себя через торрент pb.wtf

Размер: 4.1 GB | Добавлен: 1 год 10 мес. назад | Торрент скачан:89 раз
Скачать  

21-12-2018 05:20 Обмани себя Скачать торрент  

Обмани себя Год выпуска: 2018
Страна: Россия, Украина
Жанр: Детектив, криминал, комедия
Продолжительность: ~ 00:45:31
Перевод: не требуется
Субтитры: отсутствуют

Режиссер: Тарас Дударь

В ролях:

Роза Хайруллина, Павел Баршак, Катя Тышкевич, Валентин Томусяк, Михаил Кукуюк

Описание:

Главный герой - не только художник, но и настоящий аферист. Его картины-копии не всякий эксперт отличит от оригинала. Пока подделка висит во многих галереях страны, настоящее произведение искусства "уплывает" в частную коллекцию подпольных любителей живописи. Все это – и виртуозные кражи, и тщательные подделки – дело рук одного человека – Андрея Бойко...

Качество: WEBRip 720p
Формат: MKV

Видео: 1280х720 (16:9), 25 fps, AVC MPEG-4 (x264), High@L3.1 ~ 3000 kbps , 0.130 bit/pixel
Аудио: 48 kHz, АС3, 2/0 (L,R), ~192.00 kbps avg
скриншот  скриншот  скриншот  скриншот  скриншот  

Общее
Уникальный идентификатор : 88342656284220923217502443973540258351 (0x42762D3CE55F7168E98FC5BC0D0B222F)
Полное имя : C:\Обмани себя.(2018).WEBRip (720p).by.Nicodem.Files-x\01.Обмани себя.(2018).WEBRip (720p).by.Nicodem.Files-x.mkv
Формат : Matroska
Версия формата : Version 4
Размер файла : 1,01 Гбайт
Продолжительность : 45 м. 31 с.
Общий поток : 3181 Кбит/сек
Программа кодирования : Lavf56.36.100
Библиотека кодирования : Lavf56.36.100

Видео
Идентификатор : 1
Формат : AVC
Формат/Информация : Advanced Video Codec
Профиль формата : High@L3.1
Настройки формата : CABAC / 4 Ref Frames
Параметр CABAC формата : Да
Параметр RefFrames формата : 4 кадра
Идентификатор кодека : V_MPEG4/ISO/AVC
Продолжительность : 45 м. 31 с.
Битрейт : 3000 Кбит/сек
Ширина : 1280 пикселей
Высота : 720 пикселей
Соотношение сторон : 16:9
Режим частоты кадров : Постоянный
Частота кадров : 25,000 кадров/сек
Цветовое пространство : YUV
Субдискретизация насыщенности : 4:2:0
Битовая глубина : 8 бит
Тип развёртки : Прогрессивная
Бит/(Пиксели*Кадры) : 0.130
Размер потока : 953 Мбайт (92%)
Библиотека кодирования : x264 core 142 r2491 24e4fed
Настройки программы : cabac=1 / ref=3 / deblock=1:0:0 / analyse=0x3:0x113 / me=hex / subme=7 / psy=1 / psy_rd=1.00:0.00 / mixed_ref=1 / me_range=16 / chroma_me=1 / trellis=1 / 8x8dct=1 / cqm=0 / deadzone=21,11 / fast_pskip=1 / chroma_qp_offset=-2 / threads=16 / lookahead_threads=2 / sliced_threads=0 / nr=0 / decimate=1 / interlaced=0 / bluray_compat=0 / constrained_intra=0 / bframes=3 / b_pyramid=2 / b_adapt=1 / b_bias=0 / direct=1 / weightb=1 / open_gop=0 / weightp=2 / keyint=250 / keyint_min=25 / scenecut=40 / intra_refresh=0 / rc_lookahead=40 / rc=abr / mbtree=1 / bitrate=3000 / ratetol=1.0 / qcomp=0.60 / qpmin=0 / qpmax=69 / qpstep=4 / ip_ratio=1.40 / aq=1:1.00
Default : Да
Forced : Нет
Цветовой диапазон : Limited
Характеристики трансфера : BT.601
Коэффициенты матрицы : BT.601

Аудио
Идентификатор : 2
Формат : AC-3
Формат/Информация : Audio Coding 3
Коммерческое название : Dolby Digital
Идентификатор кодека : A_AC3
Продолжительность : 45 м. 31 с.
Вид битрейта : Постоянный
Битрейт : 192 Кбит/сек
Каналы : 2 канала
Channel layout : L R
Частота : 48,0 КГц
Частота кадров : 31,250 кадров/сек (1536 SPF)
Битовая глубина : 16 бит
Метод сжатия : С потерями
Задержка видео : -80 мс.
Размер потока : 62,5 Мбайт (6%)
Язык : unknown
ServiceKind/String : Complete Main
Default : Да
Forced : Нет

pb.wtf



Скачать Обмани себя через торрент https://i106.fastpic.ru/big/2018/1218/42/944d2f5e6c9dedb874824a586f7bd542.jpg Скачать фильм Обмани себя через торрент бесплантно в хорошем качестве Описание: Главный герой - не только художник, но и настоящий аферист. Его картины-копии не всякий эксперт отличит от оригинала. Пока ... 10 10 5
Торрент: Зарегистрирован [2018-12-21 05:20] · скачан: 89 раз
Статус: √ проверено
Размер: 4.1 GB
Как cкачать? Как скачать Обмани себя через торрент | qTorrent

% Раздел Тема Автор DL S | L
Наши сериалы [ 2.3 GB ] Обмани себя / Серии: 1-4 из 4 [2018 WEBRip-AVC] bober100 Скачать
1 | 0

28-11-2019 20:33  

Отключить всю рекламу на сайте

    Дорогой пользователь! Огромная просьба, поблагодарите релизера, оцените раздачу и оставьте свои комментарий, если Вы скачали Обмани себя через торрент бесплатно! Внесите свою лепту в развитие PiratBit!
    Комментировать посты могут только пользователи прошедшие не сложную регистрацию
    Показать сообщения:    

    Обмани себя через торрент
    Скачать бесплатно Обмани себя
    Обмани себя скачать торрент
    Обмани себя смотреть онлайн
    Cкачать фильм Обмани себя бесплатно
    Обмани себя скачать торрент в хорошем качестве
    Обмани себя смотреть онлайн бесплатно в хорошем качестве


    Вы не можете начинать темы
    Вы не можете отвечать на сообщения
    Вы не можете редактировать свои сообщения
    Вы не можете удалять свои сообщения
    Вы не можете голосовать в опросах
    Вы не можете прикреплять файлы к сообщениям
    Вы можете скачивать файлы