Ссылка на приватное зеркало всего за 1$. Внимание количество ограничено!!!

OK

1+1

iTunes

мы

OK

1

WEB-DLRip

Джокер

Пифагор

Ведьмак / The Witcher сериал

iTunes

ПШазам

ОК

Оно 2

iTunes

30
pack

Вам бонус

ВАЖНО

!!Акция!!

Alien_RageХит недели

RePack

Resident Evil 21

ИГРА 18+

pack

RePack

jed

RePack

fifa19

RePack

Assassins Creed: Odyssey

RePack

NEED FOR SPEED™ PAYBACK

4 сезон

9 сезон

Бесстыжие 9 сезон

Все сериалы

все сериалы на PB.wtf

RePack

FAR CRY 5
  

Все о Нине / All About Nina (Эва Вивес) [2018, драма, комедия, WEB-DL 720p] MVO ["Синема УС"] pb.wtf

Все о Нине через торрент pb.wtf

Размер: 3.88 GB | Добавлен: 1 год 1 мес. назад | Торрент скачан:19 раз
Скачать  

21-12-2018 05:50 Все о Нине Скачать торрент  

Все о Нине / All About NinaГод выпуска: 2018
Страна: США
Жанр: драма, комедия
Продолжительность: 01:43:37
Перевод: Любительский (многоголосый) | "Синема УС"
Субтитры: отсутствуют

Режиссер: Эва Вивес

rating

В ролях:

Мэри Элизабет Уинстэд, Коммон, Чейс Кроуфорд, Камрин Менхейм, Джей Мор, Минди Стерлинг, Анжелика Кебрал, Клеа ДюВалл, Кейт дель Кастильо, Бо Бриджес

Описание:

История о стендап-комике Нине Гельд, чья карьера на взлёте, а вот личная жизнь представляет собой полную катастрофу. Чтобы сбежать от проблематичного бывшего и подготовиться к крайне важному прослушиванию, Нина отправляется в Лос-Анджелес, где встречает Рейфа - и он ставит её жизнь с ног на голову.

Качество: WEB-DL 720p
Формат: MKV

Видео: h.264,4 970 kb/s, 1280x544
Аудио#1: Русский, (AC3, 2 ch, 384 Кбит/с)
скриншот  скриншот  скриншот  

Общее
Уникальный идентификатор : 249202546250525588196287982602726276532 (0xBB7AAA237F43F751BA809B8C7E0DFDB4)
Полное имя : D:\All.About.Nina.2018.P.WEB-DL.72Op_KOSHARA.mkv
Формат : Matroska
Версия формата : Version 2
Размер файла : 3,88 Гбайт
Продолжительность : 1 ч. 43 м.
Режим общего битрейта : Переменный
Общий поток : 5356 Кбит/сек
Дата кодирования : UTC 2018-12-20 12:11:51
Программа кодирования : mkvmerge v8.3.0 ('Over the Horizon') 64bit
Библиотека кодирования : libebml v1.3.1 + libmatroska v1.4.2

Видео
Идентификатор : 1
Формат : AVC
Формат/Информация : Advanced Video Codec
Профиль формата : High@L4.1
Параметр CABAC формата : Да
Параметр RefFrames формата : 4 кадра
Идентификатор кодека : V_MPEG4/ISO/AVC
Продолжительность : 1 ч. 43 м.
Вид битрейта : Переменный
Битрейт : 4970 Кбит/сек
Максимальный битрейт : 5500 Кбит/сек
Ширина : 1280 пикселей
Высота : 544 пикселя
Соотношение сторон : 2,35:1
Режим частоты кадров : Постоянный
Частота кадров : 23,976 (24000/1001) кадра/сек
Стандарт вещания : Component
Цветовое пространство : YUV
Субдискретизация насыщенности : 4:2:0
Битовая глубина : 8 бит
Тип развёртки : Прогрессивная
Бит/(Пиксели*Кадры) : 0.291
Размер потока : 3,52 Гбайт (91%)
Default : Да
Forced : Нет
Цветовой диапазон : Limited
Основные цвета : BT.709
Характеристики трансфера : BT.709
Коэффициенты матрицы : BT.709

Аудио
Идентификатор : 2
Формат : AC-3
Формат/Информация : Audio Coding 3
Расширение режима : CM (complete main)
Параметр Endianness формата : Big
Идентификатор кодека : A_AC3
Продолжительность : 1 ч. 43 м.
Вид битрейта : Постоянный
Битрейт : 384 Кбит/сек
Каналы : 2 канала
Расположение каналов : Front: L R
Частота : 48,0 КГц
Частота кадров : 31,250 кадров/сек (1536 spf)
Метод сжатия : С потерями
Размер потока : 285 Мбайт (7%)
Default : Да
Forced : Нет

pb.wtf



Скачать Все о Нине через торрент https://a.radikal.ru/a35/1812/8a/993d2b4768b2.jpg Скачать фильм Все о Нине через торрент бесплантно в хорошем качестве Описание: История о стендап-комике Нине Гельд, чья карьера на взлёте, а вот личная жизнь представляет собой полную катастрофу. Чтобы ... 7.8 10 4
Торрент: Зарегистрирован [2018-12-21 05:50] · скачан: 19 раз
Статус: T временная
Размер: 3.88 GB
Как cкачать? Как скачать Все о Нине через торрент | qTorrent

% Раздел Тема Автор DL S | L
T Фильмы (мультфильмы) cо спонсором показа (Новинки AVI/MKV) [ 1.37 GB ] Все о Нине / All About Nina [2018 WEB-DLRip] MVO ["Синема УС"] bober100 Скачать
1 | 0

28-11-2019 20:33  

Отключить всю рекламу на сайте

    Дорогой пользователь! Огромная просьба, поблагодарите релизера, оцените раздачу и оставьте свои комментарий, если Вы скачали Все о Нине через торрент бесплатно! Внесите свою лепту в развитие PiratBit!
    Комментировать посты могут только пользователи прошедшие не сложную регистрацию
    Показать сообщения:    

    Все о Нине через торрент
    Скачать бесплатно Все о Нине
    Все о Нине скачать торрент
    Все о Нине смотреть онлайн
    Cкачать фильм Все о Нине бесплатно
    Все о Нине скачать торрент в хорошем качестве
    Все о Нине смотреть онлайн бесплатно в хорошем качестве


    Вы не можете начинать темы
    Вы не можете отвечать на сообщения
    Вы не можете редактировать свои сообщения
    Вы не можете удалять свои сообщения
    Вы не можете голосовать в опросах
    Вы не можете прикреплять файлы к сообщениям
    Вы можете скачивать файлы