Ссылка на приватное зеркало всего за 1$. Внимание количество ограничено!!!

OK

1+1

iTunes

мы

OK

1

WEB-DLRip

Джокер

Пифагор

Ведьмак / The Witcher сериал

Лицензия

ПШазам

ОК

Оно 2

iTunes

30
pack

Вам бонус

ВАЖНО

!!Акция!!

Alien_RageХит недели

RePack

Resident Evil 21

ИГРА 18+

pack

RePack

jed

!!Акция!!

Alien_Rage

RePack

fifa19

RePack

Assassins Creed: Odyssey

RePack

NEED FOR SPEED™ PAYBACK

4 сезон

9 сезон

Бесстыжие 9 сезон

Все сериалы

все сериалы на PB.wtf

RePack

FAR CRY 5
  

Большая пресс-конференция Президента России Владимира Путина [20.12.2018] [2018, Интервью, пресс-конференция, HDTV 1080i] pb.wtf

Большая пресс-конференция Президента России Владимира Путина через торрент pb.wtf

Размер: 20.2 GB | Добавлен: 1 год назад | Торрент скачан:2 раза
Скачать  

21-12-2018 09:13 Большая пресс-конференция Президента России Владимира Путина Скачать торрент  

Информация о фильме

Название: Большая пресс-конференция Президента России Владимира Путина (Эфир от 20.12.2018)

Год выхода: 2018

Жанр: Пресс-конференция

Страна: Россия

Студия: ВГТРК, Россия 1 HD

Продолжительность: 03:44:28

Перевод: Не требуется

О фильме:

Президент России Владимир Путин подвел итоги года на традиционной пресс-конференции. Трансляция велась в эфире телеканалов «Россия-1», «Россия-24», Первый канал, НТВ и радиостанций «Маяк», «Вести ФМ» и «Радио России». Участие в мероприятии приняло рекордное количество журналистов — 1,7 тыс. человек.

Глава государства ответил на вопросы о ситуации в экономике и социальной сфере, о санкциях, отношениях Москвы с Западом и Украиной. По словам Путина, Россия должна перейти на новый «технологический уклад» и сохранить стратегический баланс сил с США.




Файл

Кодек: h.264

Качество: HDTV 1080i

Видео: 1920x1080 (16:9), 12.4 Mbps, 25 fps

Звук: Русский, AAC, 2 ch, 44.1 kHz, 446 kbps

Субтитры: Отсутствуют
скриншот  скриншот  скриншот  скриншот  
General

Unique ID : 300206566904142953815094545573225365275 (0xE1D9AE81F0D2741BBF339FD6622AFF1B)

Complete name : D:Большая пресс-конференция Президента России Владимира Путина 20.12.2018.mkv

Format : Matroska

Format version : Version 4 / Version 2

File size : 20.2 GiB

Duration : 3 h 44 min

Overall bit rate : 12.9 Mb/s

Encoded date : UTC 2018-12-20 20:40:56

Writing application : mkvmerge v28.1.0 ('Morning Child') 64-bit

Writing library : libebml v1.3.6 + libmatroska v1.4.9

Cover : Yes

Attachments : cover.png

Video

ID : 1

Format : AVC

Format/Info : Advanced Video Codec

Format profile : High@L4

Format settings : CABAC / 4 Ref Frames

Format settings, CABAC : Yes

Format settings, ReFrames : 4 frames

Codec ID : V_MPEG4/ISO/AVC

Duration : 3 h 44 min

Bit rate : 12.4 Mb/s

Width : 1 920 pixels

Height : 1 080 pixels

Display aspect ratio : 16:9

Frame rate mode : Constant

Frame rate : 25.000 FPS

Standard : Component

Color space : YUV

Chroma subsampling : 4:2:0

Bit depth : 8 bits

Scan type : Interlaced

Scan type, store method : Separated fields

Scan order : Top Field First

Bits/(Pixel*Frame) : 0.240

Stream size : 19.5 GiB (97%)

Language : Russian

Default : Yes

Forced : No

Color range : Limited

Color primaries : BT.709

Transfer characteristics : BT.709

Matrix coefficients : BT.709

Audio

ID : 2

Format : AAC

Format/Info : Advanced Audio Codec

Format profile : LC

Codec ID : A_AAC-2

Duration : 3 h 44 min

Bit rate : 446 kb/s

Channel(s) : 2 channels

Channel positions : Front: L R

Sampling rate : 44.1 kHz

Frame rate : 43.066 FPS (1024 SPF)

Compression mode : Lossy

Stream size : 715 MiB (3%)

Language : Russian

Default : Yes

Forced : No
pb.wtf



Скачать Большая пресс-конференция Президента России Владимира Путина через торрент https://b.radikal.ru/b02/1812/9b/cfe3c4c823fb.jpg Скачать фильм Большая пресс-конференция Президента России Владимира Путина [20.12.2018] [2018, Интервью, пресс-конференция, HDTV 1080i]через торрент бесплантно в хорошем качестве О фильме:Президент России Владимир Путин подвел итоги года на традиционной пресс-конференции. Трансляция велась в эфире телеканалов ... 5.5 10 2
Торрент: Зарегистрирован [2018-12-21 09:13] · скачан: 2 раз
Статус: √ проверено
Размер: 20.2 GB
Как cкачать? Как скачать Большая пресс-конференция Президента России Владимира Путина через торрент | qTorrent

28-11-2019 20:33  

Отключить всю рекламу на сайте


    Дорогой пользователь! Огромная просьба, поблагодарите релизера, оцените раздачу и оставьте свои комментарий, если Вы скачали Большая пресс-конференция Президента России Владимира Путина через торрент бесплатно! Внесите свою лепту в развитие PiratBit!
    Комментировать посты могут только пользователи прошедшие не сложную регистрацию
    Показать сообщения:    

    Большая пресс-конференция Президента России Владимира Путина через торрент
    Скачать бесплатно Большая пресс-конференция Президента России Владимира Путина
    Большая пресс-конференция Президента России Владимира Путина скачать торрент
    Большая пресс-конференция Президента России Владимира Путина смотреть онлайн
    Cкачать фильм Большая пресс-конференция Президента России Владимира Путина бесплатно
    Большая пресс-конференция Президента России Владимира Путина скачать торрент в хорошем качестве
    Большая пресс-конференция Президента России Владимира Путина смотреть онлайн бесплатно в хорошем качестве


    Вы не можете начинать темы
    Вы не можете отвечать на сообщения
    Вы не можете редактировать свои сообщения
    Вы не можете удалять свои сообщения
    Вы не можете голосовать в опросах
    Вы не можете прикреплять файлы к сообщениям
    Вы можете скачивать файлы