Ссылка на приватное зеркало нашего сайта всего за 1$. Внимание количество ограничено!!!

2 сезон

iTunes

1 сезон

1

2 сезон

2 сезон

iTunes

1 сезон

RePack

30

Ultimate

ВАЖНО

ИГРА 18+

pack

RePack

MK11
pack

Забери бонус

RePack

jed

!!Акция!!

Alien_Rage

RePack

fifa19

RePack

Assassins Creed: Odyssey

RePack

NEED FOR SPEED™ PAYBACK

4 сезон

9 сезон

Бесстыжие 9 сезон

Все сериалы

все сериалы на PB.wtf

RePack

FAR CRY 5
  

Страна приливов / Tidelands / Сезон 1 / Серии 1-8 (8) (Стефен Ирвин, Ли МакГрат) [2018, фэнтези, драма, криминал, WEBRip] [MVO] (*ProfixMedia*) pb.wtf

Страна приливов через торрент pb.wtf

Размер: 3.2 GB | Добавлен: 1 год 11 мес. назад | Торрент скачан:44 раза
Скачать  

21-12-2018 09:21 Страна приливов Скачать торрент  


Страна приливов / Tidelands
Год выпуска • 2018
Страна • Австралия
Жанр • фэнтези, драма, криминал
Продолжительность • ~00:44:00
Перевод
    • Профессиональный (многоголосый) *ProfixMedia*

Создатель • Стефен Ирвин, Ли МакГрат

В ролях • Шарлотта Бест, Дастин Клер, Маттиас Инвуд, Аарон Якубенко, Мадлен Мэдден, Питер О’Брайэн, Эльза Патаки и др.
Описание • Бывшая преступница возвращается домой в маленькую деревеньку Орфелин Бэй. Спокойной жизни не суждено состояться: вскоре неподалеку всплывет тело местного рыбака, а героиня столкнется с интересным феноменом — орудующей в прибрежной зоне группой таинственных человекоамфибий.

rating

Качество: WEBRip
Формат: AVI
Видео: AVI, ~ 1297 Кбит/с, 720х400
Аудио: Русский (MP3, 2 ch, 256 Кбит/с)
Субтитры: нет
скриншот  скриншот  скриншот  
General
Complete name : E:\Tidelands.S01.WEBRip.Profix.Media\Tidelands.S01E01.WEBRip.Profix.Media.avi
Format : AVI
Format/Info : Audio Video Interleave
File size : 395 MiB
Duration : 42 min 36 s
Overall bit rate : 1 297 kb/s
Writing application : Lavf57.83.100

Video
ID : 0
Format : xvid
Codec ID : xvid
Duration : 42 min 35 s
Bit rate : 981 kb/s
Width : 720 pixels
Height : 400 pixels
Display aspect ratio : 16:9
Frame rate : 23.976 (24000/1001) FPS
Scan type : Progressive
Bits/(Pixel*Frame) : 0.142
Stream size : 299 MiB (76%)
Title : Video Track

Audio
ID : 1
Format : MPEG Audio
Format version : Version 1
Format profile : Layer 3
Format settings : Joint stereo
Mode : Joint stereo
Codec ID : 55
Codec ID/Hint : MP3
Duration : 42 min 36 s
Bit rate mode : Constant
Bit rate : 256 kb/s
Channel(s) : 2 channels
Sampling rate : 48.0 kHz
Compression mode : Lossy
Stream size : 78.0 MiB (20%)
Alignment : Aligned on interleaves
Title : Audio Track
Внимание! Раздача ведётся путём добавления новых серий; при каждом добавлении создаётся новый торрент. Чтобы начать докачку новой серии, пользователям необходимо сделать следующее:
(1) остановить скачивание,
(2) удалить старый торрент у себя из клиента (старые серии удалять не надо),
(3) скачать новый торрент и запустить его у себя в клиенте вместо старого, при этом указать клиенту путь в старую папку куда и должно происходить скачивание новых серий.
Ваш клиент при этом должен произвести хеширование (проверку) старой папки (если не производит сам - помогите ему сделать это), и будет докачивать только те серии которых у вас ещё нет. Старые серии при этом не удаляются, а продолжают раздаваться!
Eсли вы уже удалили старые серии, то предотвратить повторную закачку старых серий можно, отжав галочку в соответствующих местах при запуске нового торрента. По возможности, желательно не удалять старые серии как можно дольше чтобы релизёр не столько продолжал раздавать старые серии, а смог сконцентрироваться на новых.
pb.wtf



Скачать Страна приливов через торрент http://b.radikal.ru/b01/1812/1e/627781e124c2.jpg Скачать фильм Страна приливов через торрент бесплантно в хорошем качестве Описание • Бывшая преступница возвращается домой в маленькую деревеньку Орфелин Бэй. Спокойной жизни не суждено состояться: вскоре ... 7.5 10 2
Торрент: Зарегистрирован [2018-12-21 19:29] · скачан: 44 раз
Статус: √ проверено
Размер: 3.2 GB
Как cкачать? Как скачать Страна приливов через торрент | qTorrent

% Раздел Тема Автор DL S | L
Зарубежные сериалы [ 4.15 GB ] Страна приливов / Tidelands / Сезон 1 / Серии 1-8 [2018 WEBRip] [MVO] killermax2013 Скачать
1 | 0
Зарубежные сериалы [ 13.79 GB ] Страна приливов / Tidelands / Сезон 1 / Серии 1-8 [2018 WEB-DL 1080p] [MVO] killermax2013 Скачать
1 | 0
Зарубежные сериалы [ 15.1 GB ] Страна приливов / Tidelands / Сезон 1 / Серии 1-8 [2018 WEB-DL 1080p] [MVO] killermax2013 Скачать
1 | 0
Зарубежные сериалы [ 14.84 GB ] Страна приливов / Tidelands / Сезон 1 / Серии 1-8 [2018 WEBRip 1080p] [MVO] killermax2013 Скачать
1 | 0
Зарубежные сериалы [ 12.59 GB ] Страна приливов / Tidelands / Сезон 1 / Серии 1-8 [2018 WEBRip 1080p] [MVO] killermax2013 Скачать
1 | 0
Зарубежные сериалы [ 12.29 GB ] Страна приливов / Tidelands / Сезон 1 / Серии 1-8 [2018 WEBRip 1080p] [Sub Rus] killermax2013 Скачать
1 | 0

28-11-2019 20:33  

Отключить всю рекламу на сайте

    Дорогой пользователь! Огромная просьба, поблагодарите релизера, оцените раздачу и оставьте свои комментарий, если Вы скачали Страна приливов через торрент бесплатно! Внесите свою лепту в развитие PiratBit!
    Комментировать посты могут только пользователи прошедшие не сложную регистрацию
    Показать сообщения:    

    Страна приливов через торрент
    Скачать бесплатно Страна приливов
    Страна приливов скачать торрент
    Страна приливов смотреть онлайн
    Cкачать фильм Страна приливов бесплатно
    Страна приливов скачать торрент в хорошем качестве
    Страна приливов смотреть онлайн бесплатно в хорошем качестве


    Вы не можете начинать темы
    Вы не можете отвечать на сообщения
    Вы не можете редактировать свои сообщения
    Вы не можете удалять свои сообщения
    Вы не можете голосовать в опросах
    Вы не можете прикреплять файлы к сообщениям
    Вы можете скачивать файлы