Ссылка на приватное зеркало всего за 1$. Внимание количество ограничено!!!

OK

1+1

iTunes

мы

OK

1

WEB-DLRip

Джокер

Пифагор

Ведьмак / The Witcher сериал

Лицензия

ПШазам

ОК

Оно 2

iTunes

30
pack

Вам бонус

ВАЖНО

!!Акция!!

Alien_RageХит недели

RePack

Resident Evil 21

ИГРА 18+

pack

RePack

jed

!!Акция!!

Alien_Rage

RePack

fifa19

RePack

Assassins Creed: Odyssey

RePack

NEED FOR SPEED™ PAYBACK

4 сезон

9 сезон

Бесстыжие 9 сезон

Все сериалы

все сериалы на PB.wtf

RePack

FAR CRY 5
  

Птичий короб / Bird Box (Сюзанна Бир / Susanne Bier) [2018, ужасы, фантастика, триллер, драма, WEBRip 1080p] [DUB] (Невафильм) pb.wtf

Птичий короб через торрент pb.wtf

Раздают: 3 [ 3 KB/s ]
Размер: 8.47 GB | Добавлен: 1 год назад | Торрент скачан:797 раз
Скачать  

21-12-2018 11:54 Птичий короб Скачать торрент  

Птичий короб / Bird Box
Год выхода: 2018
Страна: США
Производство: Universal Pictures, Chris Morgan Production
Жанр: ужасы, фантастика, триллер, драма
Продолжительность: 02:03:47
Перевод: Профессиональный (дублированный) Невафильм
Субтитры: Русские (форсированные, полные), Английские (полные, SDH)
Режиссер:
Сюзанна Бир / Susanne Bier
В ролях:
Сандра Буллок, Джон Малкович, Том Холландер, Сара Полсон, Джеки Уивер, Треванте Роудс, Роза Салазар, Даниэль МакДональд, Лил Релл, Машин Ган Келли
О фильме:
Люди внезапно начали сходить с ума: как-будто увидев что-то, человек становится агрессивным и начинает убивать. Мать-одиночка с двумя детьми отправляется на поиски выживших. Чтобы сохранить разум в этом новом мире, самое главное — не смотреть.
Релиз: Wilmots@EniaHDratingскриншот  

Сэмпл |
Качество: WEBRip 1080p [Bird.Box.2018.1080p.WEBRip.X264-DEFLATE]
Формат: MKV

Видео: 1920x800 (2.40:1), 24.000 fps, AVC ~8702 kbps avg, 0.231 bit/pixel
Аудио #1: 48 kHz, E-AC3 Dolby Digital, 3/2 (L,C,R,l,r) + LFE ch, ~640 kbps avg (RUS)
Аудио #2: 48 kHz, E-AC3 Dolby Digital + Atmos, 3/2 (L,C,R,l,r) + LFE ch, ~448 kbps avg (ENG)
Формат субтитров: Softsub (.srt*)

скриншот  скриншот  скриншот  
General
Unique ID : 292308418769518188267647886412769139544 (0xDBE88DBD5910FCB22E0B3A7EC0B41B58)
Complete name : G:\Bird.Box.2018.1080p.WEBRip.X264-EniaHD.mkv
Format : Matroska
Format version : Version 4 / Version 2
File size : 8.47 GiB
Duration : 2 h 3 min
Overall bit rate : 9 792 kb/s
Movie name : Bird Box (2018) - EniaHD
Encoded date : UTC 2018-12-21 10:43:04
Writing application : mkvmerge v29.0.0 ('Like It Or Not') 64-bit
Writing library : libebml v1.3.6 + libmatroska v1.4.9

Video
ID : 1
Format : AVC
Format/Info : Advanced Video Codec
Format profile : High@L4.1
Format settings : CABAC / 5 Ref Frames
Format settings, CABAC : Yes
Format settings, ReFrames : 5 frames
Codec ID : V_MPEG4/ISO/AVC
Duration : 2 h 3 min
Bit rate : 8 702 kb/s
Width : 1 920 pixels
Height : 800 pixels
Display aspect ratio : 2.40:1
Frame rate mode : Constant
Frame rate : 24.000 FPS
Color space : YUV
Chroma subsampling : 4:2:0
Bit depth : 8 bits
Scan type : Progressive
Bits/(Pixel*Frame) : 0.236
Stream size : 7.52 GiB (89%)
Writing library : x264 core 157 r2932+2 (master: 303c484 / tmod: 1b88d0a) [X86_64]
Encoding settings : cabac=1 / ref=5 / deblock=1:-3:-3 / analyse=0x3:0x133 / me=umh / subme=11 / psy=1 / psy_rd=1.05:0.15 / mixed_ref=1 / me_range=48 / chroma_me=1 / trellis=2 / 8x8dct=1 / cqm=0 / deadzone=6,6 / fast_pskip=0 / chroma_qp_offset=-3 / threads=25 / lookahead_threads=6 / sliced_threads=0 / nr=0 / decimate=0 / interlaced=0 / bluray_compat=0 / constrained_intra=0 / bframes=10 / b_pyramid=2 / b_adapt=2 / b_bias=0 / direct=3 / weightb=1 / open_gop=0 / weightp=2 / keyint=250 / keyint_min=24 / scenecut=40 / intra_refresh=0 / rc_lookahead=60 / rc=crf / mbtree=0 / crf=17.0 / qcomp=0.70 / qpmin=0 / qpmax=69 / qpstep=4 / vbv_maxrate=62500 / vbv_bufsize=78125 / crf_max=0.0 / nal_hrd=none / filler=0 / ip_ratio=1.25 / pb_ratio=1.20 / aq=3:0.70
Default : Yes
Forced : No

Audio #1
ID : 2
Format : E-AC-3
Format/Info : Enhanced Audio Coding 3
Codec ID : A_EAC3
Duration : 2 h 3 min
Bit rate mode : Constant
Bit rate : 640 kb/s
Channel(s) : 6 channels
Channel positions : Front: L C R, Side: L R, LFE
Sampling rate : 48.0 kHz
Frame rate : 187.500 FPS (256 SPF)
Compression mode : Lossy
Stream size : 567 MiB (7%)
Title : DUB, Nevafilm
Language : Russian
Service kind : Complete Main
Default : Yes
Forced : No

Audio #2
ID : 3
Format : E-AC-3
Format/Info : Enhanced Audio Coding 3
Format profile : E-AC-3+Atmos / E-AC-3
Codec ID : A_EAC3
Duration : 2 h 3 min
Bit rate mode : Constant
Bit rate : 448 kb/s
Channel(s) : 15 objects / 6 channels
Channel positions : 15 objects / Front: L C R, Side: L R, LFE
Sampling rate : 48.0 kHz
Frame rate : 187.500 FPS (256 SPF)
Compression mode : Lossy
Stream size : 397 MiB (5%)
Title : Original
Language : English
Service kind : Complete Main
Default : No
Forced : No

Text #1
ID : 4
Format : UTF-8
Codec ID : S_TEXT/UTF8
Codec ID/Info : UTF-8 Plain Text
Duration : 1 h 53 min
Bit rate : 1 b/s
Count of elements : 17
Stream size : 855 Bytes (0%)
Title : Forced
Language : Russian
Default : Yes
Forced : Yes

Text #2
ID : 5
Format : UTF-8
Codec ID : S_TEXT/UTF8
Codec ID/Info : UTF-8 Plain Text
Duration : 2 h 3 min
Bit rate : 73 b/s
Count of elements : 1453
Stream size : 66.7 KiB (0%)
Title : Full
Language : Russian
Default : No
Forced : No

Text #3
ID : 6
Format : UTF-8
Codec ID : S_TEXT/UTF8
Codec ID/Info : UTF-8 Plain Text
Duration : 1 h 56 min
Bit rate : 53 b/s
Count of elements : 1454
Stream size : 45.5 KiB (0%)
Language : English
Default : No
Forced : No

Text #4
ID : 7
Format : UTF-8
Codec ID : S_TEXT/UTF8
Codec ID/Info : UTF-8 Plain Text
Duration : 1 h 59 min
Bit rate : 61 b/s
Count of elements : 1727
Stream size : 53.4 KiB (0%)
Title : SDH
Language : English
Default : No
Forced : No

pb.wtf



Скачать Птичий короб через торрент https://i5.imageban.ru/out/2018/12/16/9ac39a2960f37c3a9ea50a20e196e572.jpg Скачать фильм Птичий короб через торрент бесплантно в хорошем качестве О фильме:Люди внезапно начали сходить с ума: как-будто увидев что-то, человек становится агрессивным и начинает убивать. Мать-одиночка с ... 9.9 10 17
Info! Золотая раздача, скачанное не засчитывается.
Торрент: Зарегистрирован [2018-12-21 11:54] · скачан: 797 раз
Статус: √ проверено
Размер: 8.47 GB
Как cкачать? Как скачать Птичий короб через торрент | qTorrent

% Раздел Тема Автор DL S | L
Фильмы (HD 720p, 1080p) (48-60 fps) [ 9.42 GB ] Птичий короб / Bird Box [2018 BDRip 720p 60 fps] [Невафильм] sheker187 Скачать
1 | 0
Фильмы 2018 [DVDrip, WEB-DLRip, HDrip] (DUB, MVO) [ 1.46 GB ] Птичий короб / Bird Box [2018 WEBRip] DUB [Невафильм] bober100 Скачать
12 | 0
Ultra HD (UHD: 2K, 4K, 8K) — видео сверхвысокой чёткости [ 17.74 GB ] Птичий короб / Bird Box [2018 WEBRip 2160p] DUB [Невафильм] bober100 Скачать
3 | 0
Фильмы (WEB-DL 720p, 1080p) [ 3.67 GB ] Птичий короб / Bird Box [2018 WEBRip 720p] DUB [Невафильм] bober100 Скачать
3 | 0
Фильмы 2018 [DVDrip, WEB-DLRip, HDrip] (DUB, MVO) [ 2.18 GB ] Птичий короб / Bird Box [2018 WEBRip] killermax2013 Скачать
1 | 0
Фильмы 2018 [DVDrip, WEB-DLRip, HDrip] (DUB, MVO) [ 746 MB ] Птичий короб / Bird Box [2018 WEBRip] DUB [Невафильм] bober100 Скачать
1 | 0
Фильмы (WEB-DL 720p, 1080p) [ 4.92 GB ] Птичий короб / Bird Box [2018 WEB-DL HEVC 1080p] [HDR] killermax2013 Скачать
1 | 0

28-11-2019 20:33  

Отключить всю рекламу на сайте

21-12-2018 13:28 Птичий короб Скачать торрент  

вот теперь можно посмотреть) сэнк ю вэри мач

мне понравился я бы докинул до 7\10 pb.wtf



22-12-2018 05:54 Птичий короб Скачать торрент  

как по мне,фильм я отнесу к фильму "явление" и "я-легенда". очень понравился.Недавно выходил фильм "тихое место",мне вот не понятно,что за концепция у таких фильмов скрывать историю?pb.wtf



22-12-2018 06:50 Птичий короб Скачать торрент  

фильм понравился, рекомендую к просмотру как многие говорят то в коей степени схож с "тихое место" но мне лично этот понравился больше.pb.wtf



22-12-2018 18:23 Птичий короб Скачать торрент  

хороший фильм ! напоминает фильм мгла!pb.wtf



24-12-2018 03:02 Птичий короб Скачать торрент  

"главное — не смотреть" - рецензия фильма... pb.wtf



    Дорогой пользователь! Огромная просьба, поблагодарите релизера, оцените раздачу и оставьте свои комментарий, если Вы скачали Птичий короб через торрент бесплатно! Внесите свою лепту в развитие PiratBit!
    Комментировать посты могут только пользователи прошедшие не сложную регистрацию
    Показать сообщения:    

    Птичий короб через торрент
    Скачать бесплатно Птичий короб
    Птичий короб скачать торрент
    Птичий короб смотреть онлайн
    Cкачать фильм Птичий короб бесплатно
    Птичий короб скачать торрент в хорошем качестве
    Птичий короб смотреть онлайн бесплатно в хорошем качестве


    Вы не можете начинать темы
    Вы не можете отвечать на сообщения
    Вы не можете редактировать свои сообщения
    Вы не можете удалять свои сообщения
    Вы не можете голосовать в опросах
    Вы не можете прикреплять файлы к сообщениям
    Вы можете скачивать файлы