2 сезон

iTunes

1 сезон

1

iTunes

iTunes

iTunes

1 сезон

RePack

30

ИГРА 18+

pack

ВАЖНО

!!Акция!!

Alien_RageХит недели

RePack

MK11
pack

Забери бонус

RePack

jed

!!Акция!!

Alien_Rage

RePack

fifa19

RePack

Assassins Creed: Odyssey

RePack

NEED FOR SPEED™ PAYBACK

4 сезон

9 сезон

Бесстыжие 9 сезон

Все сериалы

все сериалы на PB.wtf

RePack

FAR CRY 5
  

Птичий короб / Bird Box (Сюзанна Бир / Susanne Bier) [2018, ужасы, фантастика, триллер, драма, WEB-DL HEVC 1080p] [HDR] [DUB] (Невафильм) pb.wtf

Птичий короб через торрент pb.wtf

Раздают: 1 [ 0 KB/s ]
Размер: 4.92 GB | Добавлен: 1 год 10 мес. назад | Торрент скачан:481 раз
Скачать  

21-12-2018 12:22 Птичий короб Скачать торрент  

Птичий короб / Bird Box
Год выхода: 2018
Страна: США
Производство: Universal Pictures, Chris Morgan Production
Жанр: ужасы, фантастика, триллер, драма
Продолжительность: 02:03:47
Перевод: Профессиональный (дублированный) Невафильм
Субтитры: Русские (форсированные, полные), Английские (полные, SDH)
Режиссер:
Сюзанна Бир / Susanne Bier
В ролях:
Сандра Буллок, Джон Малкович, Том Холландер, Сара Полсон, Джеки Уивер, Треванте Роудс, Роза Салазар, Даниэль МакДональд, Лил Релл, Машин Ган Келли
О фильме:
Люди внезапно начали сходить с ума: как-будто увидев что-то, человек становится агрессивным и начинает убивать. Мать-одиночка с двумя детьми отправляется на поиски выживших. Чтобы сохранить разум в этом новом мире, самое главное — не смотреть.
Релиз: Zgurvas@EniaHDratingскриншот  

Сэмпл |
Качество: WEB-DL HEVC [HDR] 1080p
Формат: MKV
Видео: HDR, HEVC, 1920x1080 (16:9), 24.000 fps, ~ 4208 kbps
Аудио #1: E-AC3, 48 KHz, 6 ch, 640 kbps (Невафильм) (за звук спасибо Wilmots) (RUS)
Аудио #2: AC3, 48 KHz, 6 ch, 384 kbps (Тифлокомментарий на русском)
Аудио #3: 48 kHz, E-AC3 Dolby Digital + Atmos, 3/2 (L,C,R,l,r) + LFE ch, ~448 kbps avg (ENG)
Формат субтитров: Softsub (.srt*)

скриншот  скриншот  скриншот  
Полное имя : D:\Bird.Box.2018.1080p.HDR.HEVC.DUB.EniaHD.mkv
Формат : Matroska
Версия формата : Version 4
Размер файла : 4,92 Гбайт
Продолжительность : 2 ч. 4 м.
Общий поток : 5658 Кбит/сек
Название фильма : Птичий короб (2018)
Дата кодирования : UTC 2018-12-21 11:09:14
Программа кодирования : mkvmerge v28.2.0 ('The Awakening') 32-bit
Библиотека кодирования : libebml v1.3.6 + libmatroska v1.4.9
Обложка : Yes
Attachments : cover.bird.box.jpg

Видео
Идентификатор : 1
Формат : HEVC
Формат/Информация : High Efficiency Video Coding
Коммерческое название : HDR10
Профиль формата : Main 10@L4@Main
Идентификатор кодека : V_MPEGH/ISO/HEVC
Продолжительность : 2 ч. 3 м.
Битрейт : 4208 Кбит/сек
Ширина : 1920 пикселей
Высота : 1080 пикселей
Соотношение сторон : 16:9
Режим частоты кадров : Постоянный
Частота кадров : 24,000 кадра/сек
Цветовое пространство : YUV
Субдискретизация насыщенности : 4:2:0 (Type 2)
Битовая глубина : 10 бит
Бит/(Пиксели*Кадры) : 0.085
Размер потока : 3,64 Гбайт (74%)
Заголовок : Bird.Box.2018.1080p.HDR.HEVC.DUB.EniaHD
Язык : English
Default : Да
Forced : Нет
Цветовой диапазон : Limited
Основные цвета : BT.2020
Характеристики трансфера : PQ
Коэффициенты матрицы : BT.2020 non-constant
MasteringDisplay_ColorPrimaries : Display P3
MasteringDisplay_Luminance : min: 0.0050 cd/m2, max: 4000 cd/m2
MaxCLL : 1125 cd/m2
MaxFALL : 248 cd/m2

Аудио #1
Идентификатор : 2
Формат : E-AC-3
Формат/Информация : Enhanced AC-3
Коммерческое название : Dolby Digital Plus
Идентификатор кодека : A_EAC3
Продолжительность : 2 ч. 3 м.
Вид битрейта : Постоянный
Битрейт : 640 Кбит/сек
Каналы : 6 каналов
Channel layout : L R C LFE Ls Rs
Частота : 48,0 КГц
Частота кадров : 31,250 кадров/сек (1536 SPF)
Метод сжатия : С потерями
Размер потока : 567 Мбайт (11%)
Заголовок : E-AC3 5.1 @ 640 kbps - DUB, Невафильм
Язык : Russian
ServiceKind/String : Complete Main
Default : Да
Forced : Нет

Аудио #2
Идентификатор : 3
Формат : AC-3
Формат/Информация : Audio Coding 3
Коммерческое название : Dolby Digital
Идентификатор кодека : A_AC3
Продолжительность : 2 ч. 4 м.
Вид битрейта : Постоянный
Битрейт : 384 Кбит/сек
Каналы : 6 каналов
Channel layout : L R C LFE Ls Rs
Частота : 48,0 КГц
Частота кадров : 31,250 кадров/сек (1536 SPF)
Битовая глубина : 16 бит
Метод сжатия : С потерями
Размер потока : 342 Мбайт (7%)
Заголовок : AC3 5.1 @ 384 kbps - Audio descriptive commentary
Язык : Russian
ServiceKind/String : Complete Main
Default : Нет
Forced : Нет

Аудио #3
Идентификатор : 4
Формат : E-AC-3 JOC
Формат/Информация : Enhanced AC-3 with Joint Object Coding
Коммерческое название : Dolby Digital Plus with Dolby Atmos
Идентификатор кодека : A_EAC3
Продолжительность : 2 ч. 3 м.
Вид битрейта : Постоянный
Битрейт : 448 Кбит/сек
Каналы : 6 каналов
Channel layout : L R C LFE Ls Rs
Частота : 48,0 КГц
Частота кадров : 31,250 кадров/сек (1536 SPF)
Метод сжатия : С потерями
Размер потока : 397 Мбайт (8%)
Заголовок : E-AC3 + Atmos 5.1 @ 448 kbps - Original
Язык : English
ServiceKind/String : Complete Main
Default : Нет
Forced : Нет
Complexity index : 16
Number of dynamic objects : 15
Bed channel count : 1 канал
Bed channel configuration : LFE

Текст #1
Идентификатор : 5
Формат : UTF-8
Идентификатор кодека : S_TEXT/UTF8
Идентификатор кодека/Информация : UTF-8 Plain Text
Продолжительность : 1 ч. 53 м.
Битрейт : 1 бит/сек
ElementCount : 17
Размер потока : 855 байт (0%)
Заголовок : Forced
Язык : Russian
Default : Да
Forced : Да

Текст #2
Идентификатор : 6
Формат : UTF-8
Идентификатор кодека : S_TEXT/UTF8
Идентификатор кодека/Информация : UTF-8 Plain Text
Продолжительность : 2 ч. 3 м.
Битрейт : 74 бит/сек
ElementCount : 1453
Размер потока : 67,5 Кбайт (0%)
Заголовок : Full
Язык : Russian
Default : Нет
Forced : Нет

Текст #3
Идентификатор : 7
Формат : UTF-8
Идентификатор кодека : S_TEXT/UTF8
Идентификатор кодека/Информация : UTF-8 Plain Text
Продолжительность : 1 ч. 59 м.
Битрейт : 62 бит/сек
ElementCount : 1727
Размер потока : 54,3 Кбайт (0%)
Заголовок : Full SDH
Язык : English
Default : Нет
Forced : Нет

pb.wtf



Скачать Птичий короб через торрент https://i5.imageban.ru/out/2018/12/16/9ac39a2960f37c3a9ea50a20e196e572.jpg Скачать фильм Птичий короб через торрент бесплантно в хорошем качестве О фильме:Люди внезапно начали сходить с ума: как-будто увидев что-то, человек становится агрессивным и начинает убивать. Мать-одиночка с ... 10 10 10
Торрент: Зарегистрирован [2018-12-21 12:22] · скачан: 481 раз
Статус: √ проверено
Размер: 4.92 GB
Как cкачать? Как скачать Птичий короб через торрент | qTorrent

% Раздел Тема Автор DL S | L
Фильмы 2018 [DVDrip, WEB-DLRip, HDrip] (DUB, MVO) [ 1.46 GB ] Птичий короб / Bird Box [2018 WEBRip] DUB [Невафильм] bober100 Скачать
2 | 0
Фильмы (HD 720p, 1080p) (48-60 fps) [ 9.42 GB ] Птичий короб / Bird Box [2018 BDRip 720p 60 fps] [Невафильм] sheker187 Скачать
1 | 0
Ultra HD (UHD: 2K, 4K, 8K) — видео сверхвысокой чёткости [ 17.74 GB ] Птичий короб / Bird Box [2018 WEBRip 2160p] DUB [Невафильм] bober100 Скачать
1 | 0
Фильмы (WEB-DL 720p, 1080p) [ 3.67 GB ] Птичий короб / Bird Box [2018 WEBRip 720p] DUB [Невафильм] bober100 Скачать
3 | 0
Фильмы (WEB-DL 720p, 1080p) [ 8.47 GB ] Птичий короб / Bird Box [2018 WEBRip 1080p] killermax2013 Скачать
2 | 0
Фильмы 2018 [DVDrip, WEB-DLRip, HDrip] (DUB, MVO) [ 2.18 GB ] Птичий короб / Bird Box [2018 WEBRip] killermax2013 Скачать
1 | 0
Фильмы 2018 [DVDrip, WEB-DLRip, HDrip] (DUB, MVO) [ 746 MB ] Птичий короб / Bird Box [2018 WEBRip] DUB [Невафильм] bober100 Скачать
1 | 0

28-11-2019 20:33  

Отключить всю рекламу на сайте

    Дорогой пользователь! Огромная просьба, поблагодарите релизера, оцените раздачу и оставьте свои комментарий, если Вы скачали Птичий короб через торрент бесплатно! Внесите свою лепту в развитие PiratBit!
    Комментировать посты могут только пользователи прошедшие не сложную регистрацию
    Показать сообщения:    

    Птичий короб через торрент
    Скачать бесплатно Птичий короб
    Птичий короб скачать торрент
    Птичий короб смотреть онлайн
    Cкачать фильм Птичий короб бесплатно
    Птичий короб скачать торрент в хорошем качестве
    Птичий короб смотреть онлайн бесплатно в хорошем качестве


    Вы не можете начинать темы
    Вы не можете отвечать на сообщения
    Вы не можете редактировать свои сообщения
    Вы не можете удалять свои сообщения
    Вы не можете голосовать в опросах
    Вы не можете прикреплять файлы к сообщениям
    Вы можете скачивать файлы