Ссылка на приватное зеркало нашего сайта всего за 1$. Внимание количество ограничено!!!

2 сезон

iTunes

1 сезон

1

iTunes

iTunes

iTunes

1 сезон

RePack

30

ИГРА 18+

pack

ВАЖНО

!!Акция!!

Alien_RageХит недели

RePack

MK11
pack

Забери бонус

RePack

jed

!!Акция!!

Alien_Rage

RePack

fifa19

RePack

Assassins Creed: Odyssey

RePack

NEED FOR SPEED™ PAYBACK

4 сезон

9 сезон

Бесстыжие 9 сезон

Все сериалы

все сериалы на PB.wtf

RePack

FAR CRY 5
  

Реставратор / Серии: 1-2 из 2 (Карен Захаров) [2018, Детектив, SATRip] pb.wtf

Реставратор через торрент pb.wtf

Размер: 1.19 GB | Добавлен: 1 год 10 мес. назад | Торрент скачан:31 раз
Скачать  

21-12-2018 17:53 Реставратор Скачать торрент  

Реставратор Год выпуска: 2018
Страна: Россия
Жанр: Детектив
Продолжительность: ~ 00:46:00
Субтитры: отсутствуют

Режиссер: Карен Захаров

В ролях:

Софья Ардова, Алексей Митин, Владислав Ветров, Александр Шам, Анатолий Кот, Алёна Яковлева, Ирина Чериченко, Илья Оболонков, Виктор Васильев (III)

Описание:

Десять лет назад детдомовка Ася Новогодняя чуть не угодила в тюрьму, но сумела выйти на верную стезю. Теперь у нее новая жизнь, своя квартира и хорошая работа в дорогом ресторане. Но когда убивают директора детдома, который был ей вместо отца, Асе приходится вспомнить криминальные навыки - не для того, чтобы нарушать закон, а для того, чтобы помочь правосудию и найти убийцу. Кому перешел дорогу этот добрый и честный человек? Совпадение ли, что накануне из тюрьмы освободился бывший жених Аси Егор? В поисках убийцы Асе помогает свидетель преступления - реставратор Сеня. Он - эдакий профессор Паганель, феноменально образованный, но абсолютно не приспособленный к жизни. Качество: SATRip
Формат: AVI

Видео: XviD, ~ 1650 Кбит/с, 720x400
Аудио: MP3, 2 ch, 192 Кбит/с
скриншот  скриншот  скриншот  скриншот  

Общее
Полное имя : D:\Restavrator.2018.XviD.SATRip.25Kuzmich\Restavrator.(01.seriya.iz.02).XviD.SATRip.25Kuzmich.avi
Формат : AVI
Формат/Информация : Audio Video Interleave
Размер файла : 610 Мбайт
Продолжительность : 46 м. 3 с.
Общий поток : 1851 Кбит/сек
Программа кодирования : VirtualDubMod 1.5.10.3 | www.virtualdub-fr.org || (build 2550/release)
Библиотека кодирования : VirtualDubMod build 2550/release

Видео
Идентификатор : 0
Формат : MPEG-4 Visual
Профиль формата : Advanced Simple@L5
Параметр BVOP формата : 2
Параметр QPel формата : Нет
Параметр GMC формата : Без точки перехода
Параметр матрицы формата : Default (MPEG)
Режим смешивания : Сжатый битовый поток
Идентификатор кодека : XVID
Идентификатор кодека/Подсказка : XviD
Продолжительность : 46 м. 3 с.
Битрейт : 1577 Кбит/сек
Ширина : 720 пикселей
Высота : 400 пикселей
Соотношение сторон : 16:9
Частота кадров : 25,000 кадров/сек
Цветовое пространство : YUV
Субдискретизация насыщенности : 4:2:0
Битовая глубина : 8 бит
Тип развёртки : Прогрессивная
Метод сжатия : С потерями
Бит/(Пиксели*Кадры) : 0.219
Размер потока : 520 Мбайт (85%)
Библиотека кодирования : XviD 1.2.1 (UTC 2008-12-04)

Аудио
Идентификатор : 1
Формат : MPEG Audio
Версия формата : Version 1
Профиль формата : Layer 3
Режим : Joint stereo
Расширение режима : MS Stereo
Идентификатор кодека : 55
Идентификатор кодека/Подсказка : MP3
Продолжительность : 46 м. 3 с.
Вид битрейта : Постоянный
Битрейт : 192 Кбит/сек
Каналы : 2 канала
Частота : 48,0 КГц
Метод сжатия : С потерями
Размер потока : 63,2 Мбайт (10%)
Выравнивание : Соединение по промежуткам
Библиотека кодирования : LAME3.99r
Настройки программы : -m j -V 4 -q 2 -lowpass 18.6 -b 192

pb.wtf



Скачать Реставратор через торрент http://img15.lostpic.net/2018/12/21/58199dd068c4fde26c3db5029017347b.jpg Скачать фильм Реставратор через торрент бесплантно в хорошем качестве Описание: Десять лет назад детдомовка Ася Новогодняя чуть не угодила в тюрьму, но сумела выйти на верную стезю. Теперь у нее новая жизнь, ... 10 10 3
Торрент: Зарегистрирован [2018-12-21 17:53] · скачан: 31 раз
Статус: √ проверено
Размер: 1.19 GB
Как cкачать? Как скачать Реставратор через торрент | qTorrent

% Раздел Тема Автор DL S | L
Наши сериалы [ 1.17 GB ] Реставратор / Серии: 1-2 из 2 [2018 WEB-DLRip-AVC] bober100 Скачать
1 | 0
Наши сериалы [ 2.14 GB ] Реставратор / Серии: 1-2 из 2 [2018 WEB-DL 720p] bober100 Скачать
1 | 0
Наши сериалы [ 1.09 GB ] Реставратор / Серии: 1-2 из 2 [2018 WEB-DLRip] bober100 Скачать
1 | 0
Наши сериалы [ 1.22 GB ] Реставратор / Серии: 1-2 из 2 [2018 SATRip-AVC] aleksan55 Скачать
2 | 0

28-11-2019 20:33  

Отключить всю рекламу на сайте

    Дорогой пользователь! Огромная просьба, поблагодарите релизера, оцените раздачу и оставьте свои комментарий, если Вы скачали Реставратор через торрент бесплатно! Внесите свою лепту в развитие PiratBit!
    Комментировать посты могут только пользователи прошедшие не сложную регистрацию
    Показать сообщения:    

    Реставратор через торрент
    Скачать бесплатно Реставратор
    Реставратор скачать торрент
    Реставратор смотреть онлайн
    Cкачать фильм Реставратор бесплатно
    Реставратор скачать торрент в хорошем качестве
    Реставратор смотреть онлайн бесплатно в хорошем качестве


    Вы не можете начинать темы
    Вы не можете отвечать на сообщения
    Вы не можете редактировать свои сообщения
    Вы не можете удалять свои сообщения
    Вы не можете голосовать в опросах
    Вы не можете прикреплять файлы к сообщениям
    Вы можете скачивать файлы