MEGA SALE -50% FORZA HORIZON 4 ULTIMATE+ВСЕ DLC+ОНЛАЙН всего за 599р. 299 руб. (супер цена). Внимание количество ограничено!!!

iTunes

1+1

iTunes

мы

iTunes

1

iTunes

Чернобыль

iTunes

Ральф против интернета

Лицензия

ПШазам

Лицензия

Игра престолов

Лицензия

30
pack

ВАЖНО

!!Акция!!

Alien_RageХит недели

RePack

Resident Evil 21

ИГРА 18+

pack

RePack

Metro:Exodus

!!Акция!!

Alien_Rage

RePack

fifa19

RePack

Assassins Creed: Odyssey

RePack

NEED FOR SPEED™ PAYBACK

3 сезон

9 сезон

Бесстыжие 9 сезон

Все сериалы

все сериалы на PB.wtf

RePack

FAR CRY 5
Ребята, катастрофически не хватает 7730р. для оплаты серверов за АВГУСТ (всвязи с блокировками трафик упал в 3 раза), 1-2р., выручайте.
  

Веном / Venom (Рубен Фляйшер) [2018 г., боевик, фантастика, триллер, ужасы, BDRip-HEVC 1080p 12 bit 60 FPS] - Дубляж Лицензия / iTunes pb.wtf

Веном через торрент pb.wtf

Раздают: 4 [ 0 KB/s ]
Размер: 3.08 GB | Добавлен: 8 мес. назад | Торрент скачан:1345 раз
Скачать  

21-12-2018 19:18 Веном Скачать торрент  

Веном / Venom
Год выпуска: 2018
Страна: США, Китай
Жанр: боевик, фантастика, триллер, ужасы, ...
Продолжительность: 112 мин. / 01:52
Перевод: Дубляж Лицензия / iTunes
Тип релиза: Пиратка
Субтитры: Русские

Режиссер: Рубен Фляйшер

Бюджет: $100 000 000
Премьера в мире: 1 октября 2018

rating

В ролях: Том Харди
Мишель Уильямс
Риз Ахмед
Скотт Хэйз
Рейд Скотт
Дженни Слейт
Мелора Уолтерс
Вуди Харрельсон
Пегги Лу
Малкольм С. Мюррэй

Описание: Что если в один прекрасный день в тебя вселяется существо-симбиот, которое наделяет тебя сверхчеловеческими способностями? Вот только Веном — симбиот совсем недобрый, и договориться с ним невозможно. Хотя нужно ли договариваться?.. Ведь в какой-то момент ты понимаешь, что быть плохим вовсе не так уж и плохо. Так даже веселее. В мире и так слишком много супергероев! Мы — Веном!

Релиз от: DD2D3


Качество: BDRip 1080p
Формат: MKV
Видео кодек: V_MPEGH/ISO/HEVC
Аудио кодек: AC3
Видео : V_MPEGH/ISO/HEVC;1920x800 (2.40:1);3538 Kbps;59,940 fps;0,038 bpp
Аудио : русский; AC3; 384 Kbps; CBR; 6 ch
Навигация по главам: есть
Общее
Уникальный идентификатор : 228085536439239324470721955147080449293 (0xAB97AD2BE477E62CA8D083F7D096BD0D)
Полное имя : D:\Веном - Venom (2018) BDRip - HEVC 1080p 12 bit 60 FPS.mkv
Формат : Matroska
Версия формата : Version 4
Размер файла : 3,08 Гбайт
Продолжительность : 1 ч. 52 м.
Общий поток : 3926 Кбит/сек
Название фильма : Venom 2018 4K from селезень
Дата кодирования : UTC 2018-12-21 18:36:42
Программа кодирования : mkvmerge v10.0.0 ('To Drown In You') 32bit
Библиотека кодирования : libebml v1.3.4 + libmatroska v1.4.5
Attachments : poster

Видео
Идентификатор : 1
Формат : HEVC
Формат/Информация : High Efficiency Video Coding
Профиль формата : @L4.1@Main
Идентификатор кодека : V_MPEGH/ISO/HEVC
Продолжительность : 1 ч. 52 м.
Битрейт : 3538 Кбит/сек
Ширина : 1920 пикселей
Высота : 800 пикселей
Соотношение сторон : 2,40:1
Режим частоты кадров : Постоянный
Частота кадров : 59,940 (60000/1001) кадров/сек
Цветовое пространство : YUV
Субдискретизация насыщенности : 4:2:0
Битовая глубина : 12 бит
Бит/(Пиксели*Кадры) : 0.038
Размер потока : 2,77 Гбайт (90%)
Библиотека кодирования : x265 2.3+33-0b7d54dbb71a87a0:[Windows][MSVC 1800][64 bit] 12bit: KG7x [x265.ru]
Настройки программы : cpuid=1173503 / frame-threads=2 / numa-pools=4 / wpp / no-pmode / no-pme / no-psnr / no-ssim / log-level=2 / input-csp=1 / input-res=1920x800 / interlace=0 / total-frames=403316 / level-idc=41 / high-tier=1 / uhd-bd=0 / ref=3 / no-allow-non-conformance / no-repeat-headers / annexb / no-aud / no-hrd / info / hash=0 / no-temporal-layers / open-gop / min-keyint=25 / keyint=250 / bframes=4 / b-adapt=2 / b-pyramid / bframe-bias=0 / rc-lookahead=20 / lookahead-slices=5 / scenecut=40 / no-intra-refresh / ctu=64 / min-cu-size=8 / no-rect / no-amp / max-tu-size=32 / tu-inter-depth=1 / tu-intra-depth=1 / limit-tu=0 / rdoq-level=0 / dynamic-rd=0.00 / no-ssim-rd / signhide / no-tskip / nr-intra=0 / nr-inter=0 / no-constrained-intra / strong-intra-smoothing / max-merge=2 / limit-refs=3 / no-limit-modes / me=1 / subme=2 / merange=57 / temporal-mvp / weightp / no-weightb / no-analyze-src-pics / deblock=0:0 / no-sao / no-sao-non-deblock / rd=3 / no-early-skip / no-rskip / no-fast-intra / no-tskip-fast / no-cu-lossless / no-b-intra / rdpenalty=0 / psy-rd=4.00 / psy-rdoq=0.00 / no-rd-refine / analysis-mode=0 / no-lossless / cbqpoffs=0 / crqpoffs=0 / rc=abr / bitrate=3538 / qcomp=0.60 / qpstep=1 / stats-write=0 / stats-read=2 / cplxblur=20.0 / qblur=0.5 / ipratio=1.10 / pbratio=1.00 / aq-mode=0 / aq-strength=0.00 / no-cutree / zone-count=0 / no-strict-cbr / qg-size=64 / rc-grain / qpmax=69 / qpmin=0 / sar=1 / overscan=0 / videoformat=5 / range=0 / colorprim=2 / transfer=2 / colormatrix=2 / chromaloc=0 / display-window=0 / max-cll=0,0 / min-luma=0 / max-luma=4095 / log2-max-poc-lsb=8 / vui-timing-info / vui-hrd-info / slices=1 / opt-qp-pps / opt-ref-list-length-pps / no-multi-pass-opt-rps / scenecut-bias=0.05 / no-opt-cu-delta-qp / no-aq-motion / no-hdr / no-hdr-opt / refine-level=5 / no-limit-sao
Default : Да
Forced : Нет

Аудио
Идентификатор : 2
Формат : AC-3
Формат/Информация : Audio Coding 3
Коммерческое название : Dolby Digital
Идентификатор кодека : A_AC3
Продолжительность : 1 ч. 52 м.
Вид битрейта : Постоянный
Битрейт : 384 Кбит/сек
Каналы : 6 каналов
Channel layout : L R C LFE Ls Rs
Частота : 48,0 КГц
Частота кадров : 31,250 кадров/сек (1536 SPF)
Битовая глубина : 16 бит
Метод сжатия : С потерями
Размер потока : 308 Мбайт (10%)
Заголовок : iTunes
Язык : Russian
ServiceKind/String : Complete Main
Default : Да
Forced : Да

Текст
Идентификатор : 3
Формат : UTF-8
Идентификатор кодека : S_TEXT/UTF8
Идентификатор кодека/Информация : UTF-8 Plain Text
Продолжительность : 1 ч. 50 м.
Битрейт : 75 бит/сек
ElementCount : 1218
Размер потока : 61,0 Кбайт (0%)
Заголовок : Full (iTunes)
Язык : Russian
Default : Нет
Forced : Нет

Меню
00:00:00.000 : en:00:00:00.000
00:04:43.200 : en:00:04:43.200
00:10:58.074 : en:00:10:58.074
00:17:34.929 : en:00:17:34.929
00:24:05.486 : en:00:24:05.486
00:32:18.812 : en:00:32:18.812
00:40:07.447 : en:00:40:07.447
00:46:51.976 : en:00:46:51.976
00:53:26.203 : en:00:53:26.203
01:00:57.070 : en:01:00:57.070
01:04:01.796 : en:01:04:01.796
01:08:36.446 : en:01:08:36.446
01:11:12.852 : en:01:11:12.852
01:14:15.743 : en:01:14:15.743
01:21:18.749 : en:01:21:18.749
01:27:15.021 : en:01:27:15.021
скриншот   скриншот   скриншот   скриншот  




pb.wtf



Скачать Веном через торрент http://funkyimg.com/i/2PqBk.jpg Скачать фильм Веном через торрент бесплантно в хорошем качестве Описание: Что если в один прекрасный день в тебя вселяется существо-симбиот, которое наделяет тебя сверхчеловеческими способностями? Вот ... 9.8 10 33
Info! Золотая раздача, скачанное не засчитывается.
Торрент: Зарегистрирован [2018-12-21 19:18] · скачан: 1 345 раз
Статус: √ проверено
Размер: 3.08 GB
Как cкачать? Как скачать Веном через торрент | qTorrent


>> Регистрируемся здесь <<






Отзывы и комментарии о схеме читаем и пишем здесь: ---> Отзывы и комментарии о схеме

Новые благодарочки в телеграм довольных пользователей:
скриншот   скриншот   скриншот   скриншот   скриншот

27-12-2018 00:37 Веном Скачать торрент  

Очень крутое качество при самом минимальном весе !pb.wtf



13-01-2019 13:02 Веном Скачать торрент  

на телеке помехи смотреть невозможноpb.wtf



    Дорогой пользователь! Огромная просьба, поблагодарите релизера, оцените раздачу и оставьте свои комментарий, если Вы скачали Веном через торрент бесплатно! Внесите свою лепту в развитие PiratBit!
    Комментировать посты могут только пользователи прошедшие не сложную регистрацию
    Показать сообщения:    

    Веном через торрент
    Скачать бесплатно Веном
    Веном скачать торрент
    Веном смотреть онлайн
    Cкачать фильм Веном бесплатно
    Веном скачать торрент в хорошем качестве
    Веном смотреть онлайн бесплатно в хорошем качестве


    Вы не можете начинать темы
    Вы не можете отвечать на сообщения
    Вы не можете редактировать свои сообщения
    Вы не можете удалять свои сообщения
    Вы не можете голосовать в опросах
    Вы не можете прикреплять файлы к сообщениям
    Вы можете скачивать файлы