Ссылка на приватное зеркало нашего сайта всего за 1$. Внимание количество ограничено!!!

2 сезон

iTunes

1 сезон

1

iTunes

iTunes

iTunes

1 сезон

RePack

30

ИГРА 18+

pack

ВАЖНО

!!Акция!!

Alien_RageХит недели

RePack

MK11
pack

Забери бонус

RePack

jed

!!Акция!!

Alien_Rage

RePack

fifa19

RePack

Assassins Creed: Odyssey

RePack

NEED FOR SPEED™ PAYBACK

4 сезон

9 сезон

Бесстыжие 9 сезон

Все сериалы

все сериалы на PB.wtf

RePack

FAR CRY 5
  

Пуля / Сезон: 1 / Серии: 1-10 из 10 (Алексей Быстрицкий) [2018, Детектив, криминал, WEBRip-AVC] pb.wtf

Пуля через торрент pb.wtf

Размер: 5.49 GB | Добавлен: 1 год 10 мес. назад | Торрент скачан:168 раз
Скачать  

21-12-2018 21:57 Пуля Скачать торрент  

Пуля Год выпуска: 2018
Страна: Россия
Жанр: Детектив, криминал
Продолжительность: ~ 00:45:00 серия
Субтитры: отсутствуют

Режиссер: Алексей Быстрицкий



В ролях:

Никита Панфилов, Иева Андреевайте, Максим Щёголев, Анатолий Кот, Александр Яцко, Олег Кассин, Анна Галлямова, Антон Кузнецов, Роман Лянчук

Описание:

Главный герой — командир отряда специального назначения ГРУ, майор Кирилл Романов (Никита Панфилов), получает таинственное сообщение от виновника смерти его матери. В письме сообщается, что автор не причастен к её кончине. Кирилл в замешательстве, он решает прервать военный контракт и вернуться в Москву, чтобы встретиться с преступником лично и узнать подробности трагедии, которая произошла в Сибири, на месте, где собиралась базироваться нефтяная компания. Больше двадцати лет прошло с той страшной ночи, когда во время пожара погибла мать Романова и новые обстоятельства побуждают Кирилла провести собственное расследование трагедии. Для этого он устраивается работать в ту самую нефтяную компанию, где узнает, что на предприятии происходят странные события. Там же он знакомится с Дашей (Иева Андреевайте), родственники которой погибли при тех же обстоятельствах, что и мать Кирилла.

Качество: WEBRip-AVC
Формат: MKV

Видео: MPEG-4 AVC, ~ 2 000 Кбит/с, 1024x432, 25 кадр/с
Аудио: AC3, 2 ch, 192 Кбит/с

скриншот  скриншот  скриншот  

Общее
Уникальный идентификатор : 178382464127324222948863645197466550998 (0x86333682085689399E3A3131000742D6)
Полное имя : D:\Пуля.(2018).WEBLRip.(AVC).Files-x\01.Pulya.(2018).WEBRip.(AVC).by.Серый1779.Files-x.mkv
Формат : Matroska
Версия формата : Version 2
Размер файла : 722 Мбайт
Продолжительность : 46 м. 2 с.
Общий поток : 2193 Кбит/сек
Дата кодирования : UTC 2018-12-17 20:34:02
Программа кодирования : mkvmerge v7.8.0 ('River Man') 32bit built on Apr 3 2015 12:11:22
Библиотека кодирования : libebml v1.3.1 + libmatroska v1.4.2

Видео
Идентификатор : 1
Формат : AVC
Формат/Информация : Advanced Video Codec
Профиль формата : High@L4.1
Параметр CABAC формата : Да
Параметр RefFrames формата : 9 кадров
Идентификатор кодека : V_MPEG4/ISO/AVC
Продолжительность : 46 м. 2 с.
Битрейт : 2000 Кбит/сек
Ширина : 1024 пикселя
Высота : 432 пикселя
Соотношение сторон : 2,40:1
Режим частоты кадров : Постоянный
Частота кадров : 25,000 кадров/сек
Цветовое пространство : YUV
Субдискретизация насыщенности : 4:2:0
Битовая глубина : 8 бит
Тип развёртки : Прогрессивная
Бит/(Пиксели*Кадры) : 0.181
Размер потока : 645 Мбайт (89%)
Библиотека кодирования : x264 core 146 r2538 121396c
Настройки программы : cabac=1 / ref=9 / deblock=1:-2:-1 / analyse=0x3:0x133 / me=umh / subme=9 / psy=1 / psy_rd=1.00:0.15 / mixed_ref=1 / me_range=32 / chroma_me=1 / trellis=2 / 8x8dct=1 / cqm=0 / deadzone=21,11 / fast_pskip=0 / chroma_qp_offset=-3 / threads=18 / lookahead_threads=3 / sliced_threads=0 / nr=0 / decimate=1 / interlaced=0 / bluray_compat=0 / constrained_intra=0 / bframes=9 / b_pyramid=2 / b_adapt=2 / b_bias=0 / direct=1 / weightb=1 / open_gop=0 / weightp=2 / keyint=250 / keyint_min=25 / scenecut=40 / intra_refresh=0 / rc=2pass / mbtree=0 / bitrate=2000 / ratetol=1.0 / qcomp=0.60 / qpmin=0 / qpmax=69 / qpstep=4 / cplxblur=20.0 / qblur=0.5 / ip_ratio=1.40 / pb_ratio=1.30 / aq=2:1.00
Default : Да
Forced : Нет
Цветовой диапазон : Limited
Основные цвета : BT.709
Характеристики трансфера : BT.709
Коэффициенты матрицы : BT.709

Аудио
Идентификатор : 2
Формат : AC-3
Формат/Информация : Audio Coding 3
Расширение режима : CM (complete main)
Параметр Endianness формата : Big
Идентификатор кодека : A_AC3
Продолжительность : 46 м. 2 с.
Вид битрейта : Постоянный
Битрейт : 192 Кбит/сек
Каналы : 2 канала
Расположение каналов : Front: L R
Частота : 48,0 КГц
Частота кадров : 31,250 кадров/сек (1536 spf)
Метод сжатия : С потерями
Размер потока : 63,2 Мбайт (9%)
Default : Да
Forced : Нет

pb.wtf



Скачать Пуля через торрент http://img14.lostpic.net/2018/12/17/104c532fb6b1ea31f1a137db93729dc7.jpg Скачать фильм Пуля через торрент бесплантно в хорошем качестве Описание: Главный герой — командир отряда специального назначения ГРУ, майор Кирилл Романов (Никита Панфилов), получает таинственное ... 10 10 6
Торрент: Зарегистрирован [2018-12-21 21:57] · скачан: 168 раз
Статус: √ проверено
Размер: 5.49 GB
Как cкачать? Как скачать Пуля через торрент | qTorrent

% Раздел Тема Автор DL S | L
Космос [ 7.65 GB ] Космические колонии / Space Colonies / Сезон: 1 / Серии: 1-3 из 3 [2018 Документальный научно-популярный космос HDTV 1080i] bober100 Скачать
1 | 0
Зарубежные сериалы [ 25.76 GB ] Пули / Bullets / Сезон: 1 / Серии: 1-10 из 10 [2018 HDTV 1080p] MVO [Амедиа] bober100 Скачать
1 | 0
Наши сериалы [ 6.08 GB ] Пуля / Сезон: 1 / Серии: 1-10 из 10 [2018 SATRip] bober100 Скачать
1 | 0
Наши сериалы [ 12.11 GB ] Пуля / Сезон: 1 / Серии: 1-10 из 10 [2018 WEBRip 720p] bober100 Скачать
1 | 0
Наши сериалы [ 5.94 GB ] Пуля / Сезон: 1 / Серии: 1-10 из 10 [2018 WEB-DLRip] bober100 Скачать
2 | 0
Наши сериалы [ 20.07 GB ] Пуля / Сезон: 1 / Серии: 1-10 из 10 [2018 WEB-DL 1080p] bober100 Скачать
1 | 0
BBC [ 9.01 GB ] BBC. Опасная планета / Dangerous Earth / Сезон: 1 / Серии: 1-3 из 3 [2016 Документальный научно-популярный исследования HDTV 1080i] DVO bober100 Скачать
1 | 0

28-11-2019 20:33  

Отключить всю рекламу на сайте

22-12-2018 07:05 Пуля Скачать торрент  

Смотрибельно?
Почините УВЕДОМЛЕНИЕ НА ПОЧТУpb.wtf



26-12-2018 08:43 Пуля Скачать торрент  

andi555777 писал(а):

Смотрибельно?
Почините УВЕДОМЛЕНИЕ НА ПОЧТУ

Хватило терпения на одну сериюpb.wtf



08-01-2019 13:34 Пуля Скачать торрент  

Мне на три.pb.wtf



    Дорогой пользователь! Огромная просьба, поблагодарите релизера, оцените раздачу и оставьте свои комментарий, если Вы скачали Пуля через торрент бесплатно! Внесите свою лепту в развитие PiratBit!
    Комментировать посты могут только пользователи прошедшие не сложную регистрацию
    Показать сообщения:    

    Пуля через торрент
    Скачать бесплатно Пуля
    Пуля скачать торрент
    Пуля смотреть онлайн
    Cкачать фильм Пуля бесплатно
    Пуля скачать торрент в хорошем качестве
    Пуля смотреть онлайн бесплатно в хорошем качестве


    Вы не можете начинать темы
    Вы не можете отвечать на сообщения
    Вы не можете редактировать свои сообщения
    Вы не можете удалять свои сообщения
    Вы не можете голосовать в опросах
    Вы не можете прикреплять файлы к сообщениям
    Вы можете скачивать файлы