Всегда рабочее зеркало без VPN и Proxy просто перед .vidak.icu напиши любое слово или цифру, Пример http://6vfb.vidak.icu

MVO

MVO

1 сезон

1

1 сезон

iTunes

1 сезон

13

1 сезон

Deluxe

pack

Рекомендуем

Repack

30

ВАЖНО

RePack

MK11

RePack

jed

RePack

fifa19

RePack

RDR2

RePack

NEED FOR SPEED™ PAYBACK

Кинопоиск HD

6 сезон

 Острые козырьки 6 сезон

Все сериалы

все сериалы на PB.wtf

RePack

FAR CRY 5
  
Magnet ссылка

Список Шиндлера / Schindler's List (Стивен Спилберг) [1993 г., Драма, военный, биография, история, ВОВ, UHD BDRemux 2160p] DUB + 2xMVO + 4xAVO pb.wtf

Список Шиндлера через торрент pb.wtf

Размер: 80.52 GB | Добавлен: 3 года 7 мес. назад | Торрент скачан:20 раз
Смотреть онлайн Список Шиндлера | Скачать    Ребята, помогите собрать деньги на оплату серверов!!!

22-12-2018 04:01 Список Шиндлера Скачать торрент  


Список Шиндлера / Schindler's List
«Этот список - жизнь»

Год выпуска: 1993
Страна: США
Жанр: Драма, военный, биография, история, ВОВ, экранизация
Продолжительность: 03:15:08
Перевод: Дублированный, профессиональный многоголосый, авторский
Субтитры: Русские (полные, форсированные), английские
Режиссер: Стивен Спилберг
В ролях:
Лиам Нисон, Бен Кингсли, Рэйф Файнс, Кэролайн Гудолл, Джонатан Сегалл, Эмбет Дэвидц, Малгоша Гебель, Шмуэль Леви, Марк Иванир, Беатрис Макола, Анджей Северин, Фридрих фон Тун, Кшиштоф Люфт, Хэрри Неринг, Норберт Вайссер, Ади Ницан, Михаэль Шнайдер, Мири Фабиан, Анна Муха, Альберт Мисак, Майкл Гордон, Яцек Войчицки, Беата Палух, Пётр Полк, Эзра Дегэн, Беата Новак, Леопольд Козловски, Ежи Новак, Адам Семён, Павел Делонг, Шабтай Конорти, Хенрик Биста, Тадеуш Брадецкий, Элина Лёвензон, Эва Колясиньска, Беттина Купфер, Вили Матула, Гено Лечнер, Людгер Пистор, Бранко Лустиг, Ганс-Михаэл Реберг, Эугениуш П
Описание:
Экранизация романа Томаса Кенилли «Ковчег Шиндлера». Кто спас одну человеческую жизнь, тот спас целый мир... "Список Шиндлера" - признанный шедевр кинематографа. Лента рассказывает реальную историю загадочного Оскара Шиндлера, члена нацистской партии, преуспевающего фабриканта, спасшего во время Второй мировой войны более тысячи ста евреев. Это триумф одного человека, не похожего на других, и драма тех, кто, благодаря ему, выжил в ужасный период человеческой истории.
rating
Качество: UHD BDRemux 2160p
Формат: MKV
Видео: HEVC HDR, 51,6 Мбит/с, 3840x2160, 23.976 кадр/с, 10 bit
Аудио №1: Russian / DTS / 5.1 / 48 kHz / 768 kbps Дубляж оцифровка с VHS
Аудио №2: Russian / Dolby Digital Audio / 5.1 / 48 kHz / 448 kbps Дубляж Blu-Ray
Аудио №3: English / TrueHD+Atmos / 7.1 / 48 kHz / 3130 kbps
Аудио №4: English / Dolby Digital Audio / 5.1 / 48 kHz / 448 kbps
Аудио №5: Russian / Dolby Digital Audio / 5.1 / 48 kHz / 448 kbps MVO
Аудио №6: Russian / Dolby Digital Audio / 5.1 / 48 kHz / 448 kbps MVO Киномания
Аудио №7: Russian / Dolby Digital Audio / 5.1 / 48 kHz / 448 kbps Юрий Сербин, 1995 г/
Аудио №8: Russian / Dolby Digital Audio / 5.1 / 48 kHz / 448 kbps Юрий Сербин, 2012 г.
Аудио №9: Russian / Dolby Digital Audio / 5.1 / 48 kHz / 448 kbps Юрий Живов
Аудио №10: Russian / Dolby Digital Audio / 5.1 / 48 kHz / 192 kbps Сергей Визгунов
Аудио №11: Russian / Dolby Digital Audio / 5.1 / 48 kHz / 192 kbps Василий Горчаков
Навигация по главам: Есть

General
Unique ID : 34441095323521140316599964786423468634 (0x19E91D1A23B36F078A762980E473925A)
Complete name : W:\Downloads\Releases\Schindler.s.List.1993.BDRemux.HEVC.HDR.2160p.mkv
Format : Matroska
Format version : Version 4 / Version 2
File size : 80.5 GiB
Duration : 3 h 15 min
Overall bit rate mode : Variable
Overall bit rate : 59.1 Mb/s
Encoded date : UTC 2018-12-21 17:45:57
Writing application : mkvmerge v29.0.0 ('Like It Or Not') 64-bit
Writing library : libebml v1.3.6 + libmatroska v1.4.9
Attachments : poster.jpg

Video
ID : 1
Format : HEVC
Format/Info : High Efficiency Video Coding
Format profile : Main [email protected]@High
Codec ID : V_MPEGH/ISO/HEVC
Duration : 3 h 15 min
Bit rate : 51.6 Mb/s
Width : 3 840 pixels
Height : 2 160 pixels
Display aspect ratio : 16:9
Frame rate mode : Constant
Frame rate : 23.976 (24000/1001) FPS
Color space : YUV
Chroma subsampling : 4:2:0 (Type 2)
Bit depth : 10 bits
Bits/(Pixel*Frame) : 0.259
Stream size : 70.3 GiB (87%)
Default : Yes
Forced : No
Color range : Limited
Color primaries : BT.2020
Transfer characteristics : PQ
Matrix coefficients : BT.2020 non-constant
Mastering display color pri : Display P3
Mastering display luminance : min: 0.0010 cd/m2, max: 1000 cd/m2
Maximum Content Light Level : 1000 cd/m2
Maximum Frame-Average Light : 311 cd/m2

Audio #1
ID : 2
Format : TrueHD
Format profile : TrueHD+Atmos / TrueHD
Codec ID : A_TRUEHD
Duration : 3 h 15 min
Bit rate mode : Variable
Bit rate : 3 130 kb/s
Maximum bit rate : 4 629 kb/s
Channel(s) : Object Based / 8 channels
Channel positions : Object Based / Front: L C R, Side: L R, Back: L R, LFE
Sampling rate : / 48.0 kHz
Frame rate : 1 200.000 FPS (40 SPF)
Compression mode : Lossless
Stream size : 4.27 GiB (5%)
Title : English TrueHD Atmos 7.1 (UHD Blu-ray)
Language : English
Default : No
Forced : No

Audio #2
ID : 3
Format : AC-3
Format/Info : Audio Coding 3
Codec ID : A_AC3
Duration : 3 h 15 min
Bit rate mode : Constant
Bit rate : 448 kb/s
Channel(s) : 6 channels
Channel positions : Front: L C R, Side: L R, LFE
Sampling rate : 48.0 kHz
Frame rate : 31.250 FPS (1536 SPF)
Bit depth : 16 bits
Compression mode : Lossy
Stream size : 625 MiB (1%)
Title : English Dolby Digital 5.1 (UHD Blu-ray)
Language : English
Service kind : Complete Main
Default : No
Forced : No

Audio #3
ID : 4
Format : DTS
Format/Info : Digital Theater Systems
Codec ID : A_DTS
Duration : 3 h 15 min
Bit rate mode : Constant
Bit rate : 768 kb/s
Channel(s) : 6 channels
Channel positions : Front: L C R, Side: L R, LFE
Sampling rate : 48.0 kHz
Frame rate : 93.750 FPS (512 SPF)
Bit depth : 24 bits
Compression mode : Lossy
Delay relative to video : -1 ms
Stream size : 1.05 GiB (1%)
Title : DUB DTS
Language : Russian
Default : No
Forced : No

Audio #4
ID : 5
Format : AC-3
Format/Info : Audio Coding 3
Codec ID : A_AC3
Duration : 3 h 15 min
Bit rate mode : Constant
Bit rate : 448 kb/s
Channel(s) : 6 channels
Channel positions : Front: L C R, Side: L R, LFE
Sampling rate : 48.0 kHz
Frame rate : 31.250 FPS (1536 SPF)
Bit depth : 16 bits
Compression mode : Lossy
Delay relative to video : -1 ms
Stream size : 625 MiB (1%)
Title : DUB (BD CEE)
Language : Russian
Service kind : Complete Main
Default : Yes
Forced : No

Audio #5
ID : 6
Format : AC-3
Format/Info : Audio Coding 3
Codec ID : A_AC3
Duration : 3 h 15 min
Bit rate mode : Constant
Bit rate : 448 kb/s
Channel(s) : 6 channels
Channel positions : Front: L C R, Side: L R, LFE
Sampling rate : 48.0 kHz
Frame rate : 31.250 FPS (1536 SPF)
Bit depth : 16 bits
Compression mode : Lossy
Delay relative to video : -1 ms
Stream size : 625 MiB (1%)
Title : MVO
Language : Russian
Service kind : Complete Main
Default : No
Forced : No

Audio #6
ID : 7
Format : AC-3
Format/Info : Audio Coding 3
Codec ID : A_AC3
Duration : 3 h 15 min
Bit rate mode : Constant
Bit rate : 448 kb/s
Channel(s) : 6 channels
Channel positions : Front: L C R, Side: L R, LFE
Sampling rate : 48.0 kHz
Frame rate : 31.250 FPS (1536 SPF)
Bit depth : 16 bits
Compression mode : Lossy
Delay relative to video : -1 ms
Stream size : 625 MiB (1%)
Title : MVO (Киномания)
Language : Russian
Service kind : Complete Main
Default : No
Forced : No

Audio #7
ID : 8
Format : AC-3
Format/Info : Audio Coding 3
Codec ID : A_AC3
Duration : 3 h 15 min
Bit rate mode : Constant
Bit rate : 448 kb/s
Channel(s) : 6 channels
Channel positions : Front: L C R, Side: L R, LFE
Sampling rate : 48.0 kHz
Frame rate : 31.250 FPS (1536 SPF)
Bit depth : 16 bits
Compression mode : Lossy
Delay relative to video : -1 ms
Stream size : 625 MiB (1%)
Title : AVO (Ю.Сербин -1995)
Language : Russian
Service kind : Complete Main
Default : No
Forced : No

Audio #8
ID : 9
Format : AC-3
Format/Info : Audio Coding 3
Codec ID : A_AC3
Duration : 3 h 15 min
Bit rate mode : Constant
Bit rate : 448 kb/s
Channel(s) : 6 channels
Channel positions : Front: L C R, Side: L R, LFE
Sampling rate : 48.0 kHz
Frame rate : 31.250 FPS (1536 SPF)
Bit depth : 16 bits
Compression mode : Lossy
Delay relative to video : -1 ms
Stream size : 625 MiB (1%)
Title : AVO (Ю.Сербин - 2012)
Language : Russian
Service kind : Complete Main
Default : No
Forced : No

Audio #9
ID : 10
Format : AC-3
Format/Info : Audio Coding 3
Codec ID : A_AC3
Duration : 3 h 15 min
Bit rate mode : Constant
Bit rate : 448 kb/s
Channel(s) : 6 channels
Channel positions : Front: L C R, Side: L R, LFE
Sampling rate : 48.0 kHz
Frame rate : 31.250 FPS (1536 SPF)
Bit depth : 16 bits
Compression mode : Lossy
Delay relative to video : -1 ms
Stream size : 625 MiB (1%)
Title : AVO (Ю.Живов)
Language : Russian
Service kind : Complete Main
Default : No
Forced : No

Audio #10
ID : 11
Format : AC-3
Format/Info : Audio Coding 3
Codec ID : A_AC3
Duration : 3 h 15 min
Bit rate mode : Constant
Bit rate : 192 kb/s
Channel(s) : 2 channels
Channel positions : Front: L R
Sampling rate : 48.0 kHz
Frame rate : 31.250 FPS (1536 SPF)
Bit depth : 16 bits
Compression mode : Lossy
Delay relative to video : -1 ms
Stream size : 268 MiB (0%)
Title : AVO (С.Визгунов)
Language : Russian
Service kind : Complete Main
Default : No
Forced : No

Audio #11
ID : 12
Format : AC-3
Format/Info : Audio Coding 3
Codec ID : A_AC3
Duration : 3 h 15 min
Bit rate mode : Constant
Bit rate : 192 kb/s
Channel(s) : 2 channels
Channel positions : Front: L R
Sampling rate : 48.0 kHz
Frame rate : 31.250 FPS (1536 SPF)
Bit depth : 16 bits
Compression mode : Lossy
Delay relative to video : -1 ms
Stream size : 268 MiB (0%)
Title : AVO (В.Горчаков)
Language : Russian
Service kind : Complete Main
Default : No
Forced : No

Text #1
ID : 13
Format : UTF-8
Codec ID : S_TEXT/UTF8
Codec ID/Info : UTF-8 Plain Text
Duration : 3 h 7 min
Bit rate : 3 b/s
Count of elements : 62
Stream size : 4.42 KiB (0%)
Title : Forced
Language : Russian
Default : Yes
Forced : No

Text #2
ID : 14
Format : UTF-8
Codec ID : S_TEXT/UTF8
Codec ID/Info : UTF-8 Plain Text
Duration : 3 h 7 min
Bit rate : 74 b/s
Count of elements : 1636
Stream size : 102 KiB (0%)
Title : Full
Language : Russian
Default : No
Forced : No

Text #3
ID : 15
Format : UTF-8
Codec ID : S_TEXT/UTF8
Codec ID/Info : UTF-8 Plain Text
Duration : 3 h 4 min
Bit rate : 52 b/s
Count of elements : 2173
Stream size : 71.6 KiB (0%)
Title : Full
Language : English
Default : No
Forced : No

Menu
00:00:00.000 : :Chapter 01
00:03:23.161 : :Chapter 02
00:10:12.153 : :Chapter 03
00:14:51.307 : :Chapter 04
00:17:28.714 : :Chapter 05
00:21:42.384 : :Chapter 06
00:23:48.009 : :Chapter 07
00:30:37.669 : :Chapter 08
00:34:23.728 : :Chapter 09
00:41:43.751 : :Chapter 10
00:44:16.737 : :Chapter 11
00:50:55.761 : :Chapter 12
00:55:09.431 : :Chapter 13
00:56:44.859 : :Chapter 14
01:13:44.753 : :Chapter 15
01:17:05.704 : :Chapter 16
01:26:02.115 : :Chapter 17
01:29:26.319 : :Chapter 18
01:32:01.182 : :Chapter 19
01:38:36.869 : :Chapter 20
01:43:19.776 : :Chapter 21
01:49:36.611 : :Chapter 22
01:55:45.980 : :Chapter 23
01:58:42.824 : :Chapter 24
02:02:59.789 : :Chapter 25
02:06:49.310 : :Chapter 26
02:10:11.637 : :Chapter 27
02:13:44.725 : :Chapter 28
02:18:21.376 : :Chapter 29
02:26:46.506 : :Chapter 30
02:34:15.621 : :Chapter 31
02:38:48.018 : :Chapter 32
02:41:15.415 : :Chapter 33
02:46:21.763 : :Chapter 34
02:48:12.332 : :Chapter 35
02:50:23.171 : :Chapter 36
02:55:28.392 : :Chapter 37
03:01:51.358 : :Chapter 38
03:05:04.551 : :Chapter 39
03:08:50.444 : :Chapter 40
pb.wtf



Скачать Список Шиндлера через торрент https://b.radikal.ru/b40/1812/18/e9f87cd0a6aa.jpg Скачать, смотреть онлайн Список Шиндлера бесплантно в хорошем качестве Описание: Экранизация романа Томаса Кенилли «Ковчег Шиндлера». Кто спас одну человеческую жизнь, тот спас целый мир... "Список Шиндлера" - ... 10 10 1
Info! Золотая раздача, скачанное не засчитывается.
Торрент: Зарегистрирован [2018-12-22 04:01] · скачан: 20 раз
Статус: √ проверено
Размер: 80.52 GB
Как cкачать? Как скачать Список Шиндлера через торрент | UTorrent

28-11-2019 20:33  

Отключить вcю реклaмy на сайте

    Дорогой пользователь! Огромная просьба, поблагодарите релизера, оцените раздачу и оставьте свои комментарий, если Вы скачали Список Шиндлера через торрент бесплатно!
    Комментировать посты могут только пользователи прошедшие не сложную регистрацию
    Показать сообщения:    

    Список Шиндлера через торрент
    Скачать бесплатно Список Шиндлера
    Список Шиндлера скачать торрент
    Список Шиндлера смотреть онлайн
    Cкачать фильм Список Шиндлера бесплатно
    Список Шиндлера скачать торрент в хорошем качестве
    Список Шиндлера смотреть онлайн бесплатно в хорошем качестве


    Вы не можете начинать темы
    Вы не можете отвечать на сообщения
    Вы не можете редактировать свои сообщения
    Вы не можете удалять свои сообщения
    Вы не можете голосовать в опросах
    Вы не можете прикреплять файлы к сообщениям
    Вы можете скачивать файлы