Ссылка на приватное зеркало нашего сайта всего за 1$. Внимание количество ограничено!!!

2 сезон

iTunes

1 сезон

1

2 сезон

2 сезон

iTunes

1 сезон

RePack

30

Ultimate

ВАЖНО

ИГРА 18+

pack

RePack

MK11
pack

Забери бонус

RePack

jed

!!Акция!!

Alien_Rage

RePack

fifa19

RePack

Assassins Creed: Odyssey

RePack

NEED FOR SPEED™ PAYBACK

4 сезон

9 сезон

Бесстыжие 9 сезон

Все сериалы

все сериалы на PB.wtf

RePack

FAR CRY 5
  

Криптон / Krypton / Сезон: 1 / Серии: 1-10 из 10 (Киаран Доннелли, Кит Боак, Кейт Дэннис) [2018, фантастика, боевик, драма, приключения, WEB-DLRip] [MVO] (TVShows) pb.wtf

Криптон через торрент pb.wtf

Размер: 7.13 GB | Добавлен: 1 год 11 мес. назад | Торрент скачан:21 раз
Скачать  

22-12-2018 07:31 Криптон Скачать торрент  

Криптон | Krypton
Год выпуска: 2018
Страна: США
Жанр: фантастика, боевик, драма, приключения
Продолжительность: ~ 00:43:00

Перевод: Профессиональный (многоголосый закадровый) TVShows

Режиссёр: Киаран Доннелли, Кит Боак, Кейт Дэннис

В ролях: Камерон Каффе, Джорджина Кэмпбелл, Йен МакЭлхинни, Эллиот Кауэн, Энн Огбомо, Расмус Хардайкер, Уоллис Дэй, Аарон Пьер, Гордон Александр и др.
Описание: В центре фантастического сериала — события, происходившие на родной планете мальчика с необычными способностями, который стал Суперменом. Действие разворачивается за несколько десятилетий до гибели планеты. Дед Супермена, всю жизнь веривший в равенство всех жителей планеты Криптон, решает вести непримиримую борьбу с беспорядками и очистить славное имя Элов…


Качество: WEB-DLRip
Формат: AVI
Видео: XVID, 720x400, 23.976 fps, ~2000 kbps avg, ~0.29 bit/pixel
Аудио Rus: AC3, 48.0 KHz, 6 channels, 384 kbps
Субтитры: нет
General
Complete name : G:\Криптон (Сезон 1) TVShows\Krypton.S01E01.WEB-DLRip.RGzsRutracker.Celta88.avi
Format : AVI
Format/Info : Audio Video Interleave
File size : 738 MiB
Duration : 43 min 6 s
Overall bit rate : 2 393 kb/s
Writing application : VirtualDubMod 1.5.10.2 (build 2540/release)
Writing library : VirtualDubMod build 2540/release

Video
ID : 0
Format : MPEG-4 Visual
Format profile : Advanced Simple@L5
Format settings, BVOP : 1
Format settings, QPel : No
Format settings, GMC : No warppoints
Format settings, Matrix : Default (MPEG)
Codec ID : XVID
Codec ID/Hint : XviD
Duration : 43 min 6 s
Bit rate : 1 999 kb/s
Width : 720 pixels
Height : 400 pixels
Display aspect ratio : 16:9
Frame rate : 23.976 (24000/1001) FPS
Color space : YUV
Chroma subsampling : 4:2:0
Bit depth : 8 bits
Scan type : Progressive
Compression mode : Lossy
Bits/(Pixel*Frame) : 0.290
Stream size : 616 MiB (84%)
Writing library : XviD 1.2.0.dev47 (UTC 2006-11-01)

Audio
ID : 1
Format : AC-3
Format/Info : Audio Coding 3
Mode extension : CM (complete main)
Format settings, Endianness : Big
Codec ID : 2000
Duration : 43 min 6 s
Bit rate mode : Constant
Bit rate : 384 kb/s
Channel(s) : 6 channels
Channel positions : Front: L C R, Side: L R, LFE
Sampling rate : 48.0 kHz
Frame rate : 31.250 FPS (1536 spf)
Bit depth : 16 bits
Compression mode : Lossy
Stream size : 118 MiB (16%)
Alignment : Split accross interleaves
Interleave, duration : 42 ms (1.00 video frame)
Interleave, preload duratio : 500 ms
скриншот  скриншот  скриншот  
pb.wtf



Скачать Криптон через торрент https://i108.fastpic.ru/big/2018/1221/09/cafdb43da3bc7e823efa2fab3f95d009.png Скачать фильм Криптон через торрент бесплантно в хорошем качестве Описание: В центре фантастического сериала — события, происходившие на родной планете мальчика с необычными способностями, который стал ... 5 10 1
Торрент: Зарегистрирован [2018-12-22 07:31] · скачан: 21 раз
Статус: √ проверено
Размер: 7.13 GB
Как cкачать? Как скачать Криптон через торрент | qTorrent

% Раздел Тема Автор DL S | L
Зарубежные сериалы [ 6.06 GB ] Криптон / Krypton / Сезон: 2 / Серии: 1-10 из 10 [2019 WEB-DLRip] DUB [Novamedia] bober100 Скачать
1 | 0
Зарубежные сериалы [ 28.05 GB ] Криптон / Krypton / Сезон: 2 / Серии: 1-10 из 10 [2019 WEB-DL 1080p] DUB [Novamedia] +MVO [Good People] bober100 Скачать
1 | 0
Зарубежные сериалы [ 26.9 GB ] Криптон / Krypton / Сезон: 2 / Серии: 1-10 из 10 [2019 WEB-DL 1080p] MVO [Lostfilm] bober100 Скачать
1 | 0
Зарубежные сериалы [ 6.06 GB ] Криптон / Krypton / Сезон: 2 / Серии: 1-10 из 10 [2019 WEB-DLRip] [MVO] killermax2013 Скачать
1 | 0
Зарубежные сериалы [ 7.26 GB ] Криптон / Krypton / Сезон: 2 / Серии: 1-10 из 10 [2019 WEBRip] MVO [TVShows] bober100 Скачать
1 | 0
Зарубежные сериалы [ 12.71 GB ] Криптон / Krypton / Сезон: 2 / Серии: 1-10 из 10 [2019 WEB-DL 720p] MVO [Lostfilm] bober100 Скачать
1 | 0
Зарубежные сериалы [ 28.06 GB ] Криптон / Krypton / Сезон: 2 / Серии: 1-10 из 10 [2019 WEB-DL 1080p] MVO [TVShows] bober100 Скачать
1 | 0

28-11-2019 20:33  

Отключить всю рекламу на сайте

    Дорогой пользователь! Огромная просьба, поблагодарите релизера, оцените раздачу и оставьте свои комментарий, если Вы скачали Криптон через торрент бесплатно! Внесите свою лепту в развитие PiratBit!
    Комментировать посты могут только пользователи прошедшие не сложную регистрацию
    Показать сообщения:    

    Криптон через торрент
    Скачать бесплатно Криптон
    Криптон скачать торрент
    Криптон смотреть онлайн
    Cкачать фильм Криптон бесплатно
    Криптон скачать торрент в хорошем качестве
    Криптон смотреть онлайн бесплатно в хорошем качестве


    Вы не можете начинать темы
    Вы не можете отвечать на сообщения
    Вы не можете редактировать свои сообщения
    Вы не можете удалять свои сообщения
    Вы не можете голосовать в опросах
    Вы не можете прикреплять файлы к сообщениям
    Вы можете скачивать файлы