Ссылка на приватное зеркало нашего сайта всего за 1$. Внимание количество ограничено!!!

2 сезон

iTunes

1 сезон

1

2 сезон

2 сезон

iTunes

1 сезон

RePack

30

Новинка

ВАЖНО

ИГРА 18+

pack

RePack

MK11
pack

Забери бонус

RePack

jed

!!Акция!!

Alien_Rage

RePack

fifa19

RePack

Assassins Creed: Odyssey

RePack

NEED FOR SPEED™ PAYBACK

4 сезон

9 сезон

Бесстыжие 9 сезон

Все сериалы

все сериалы на PB.wtf

RePack

FAR CRY 5
  

Нарко: Мексика / Narcos: Mexico / Сезон: 1 / Серии: 1-10 из 10 (Андрес Байс, Амат Эскаланте, Алонсо Руис Палашиос) [2018, Драма, криминал, WEB-DLRip] [MVO] (TVShows) pb.wtf

Нарко: Мексика через торрент pb.wtf

Размер: 10.19 GB | Добавлен: 1 год 11 мес. назад | Торрент скачан:23 раза
Скачать  

22-12-2018 07:48 Нарко: Мексика Скачать торрент  

Нарко: Мексика | Narcos: Mexico
Год выпуска: 2018
Страна: США
Жанр: Драма, криминал
Продолжительность: 00:55:00

Перевод: Профессиональный (многоголосый закадровый) TVShows

Режиссёр: Андрес Байс, Амат Эскаланте, Алонсо Руис Палашиос

В ролях: Алисса Диас, Диего Луна, Майкл Пенья, Тереса Руис, Кларк Фриман, Марк Кубр, Андрес Альмейда, Хулио Седильо, Майк Дойл, Тесса Иа и др.
Описание: В 1980-х годах Феликс Галлардо решил объединить разрозненных и независимых производителей и дилеров наркотиков Мексики и построить собственную криминальную империю. В это же время агент Управления по борьбе с наркотиками Кики Камарена, получив повышение, переезжает с женой и маленьким сыном из Калифорнии в Гвадалахару. На новом месте он сталкивается с сильнейшим противником, и их противостояние затягивается на долгие годы.
rating
скриншот  

Качество: WEB-DLRip
Формат: AVI
Видео: XVID, 704x352, 23.976 fps, ~2000 kbps avg, ~0.337 bit/pixel
Аудио Rus: AC3, 48.0 KHz, 6 channels, 384 kbps
Субтитры: отсутствуют
General
Complete name : G:\Нарко. Мексика (Сезон 1) TVShows\Narcos.Mexico.S01E01.WEB-DLRip.RGzsRutracker.Celta88.avi
Format : AVI
Format/Info : Audio Video Interleave
File size : 985 MiB
Duration : 57 min 33 s
Overall bit rate : 2 393 kb/s
Writing application : VirtualDubMod 1.5.10.2 (build 2540/release)
Writing library : VirtualDubMod build 2540/release

Video
ID : 0
Format : MPEG-4 Visual
Format profile : Advanced Simple@L5
Format settings, BVOP : 1
Format settings, QPel : No
Format settings, GMC : No warppoints
Format settings, Matrix : Default (MPEG)
Codec ID : XVID
Codec ID/Hint : XviD
Duration : 57 min 33 s
Bit rate : 2 000 kb/s
Width : 704 pixels
Height : 352 pixels
Display aspect ratio : 2.000
Frame rate : 23.976 (24000/1001) FPS
Color space : YUV
Chroma subsampling : 4:2:0
Bit depth : 8 bits
Scan type : Progressive
Compression mode : Lossy
Bits/(Pixel*Frame) : 0.337
Stream size : 823 MiB (84%)
Writing library : XviD 1.2.0.dev47 (UTC 2006-11-01)

Audio
ID : 1
Format : AC-3
Format/Info : Audio Coding 3
Mode extension : CM (complete main)
Format settings, Endianness : Big
Codec ID : 2000
Duration : 57 min 33 s
Bit rate mode : Constant
Bit rate : 384 kb/s
Channel(s) : 6 channels
Channel positions : Front: L C R, Side: L R, LFE
Sampling rate : 48.0 kHz
Frame rate : 31.250 FPS (1536 spf)
Bit depth : 16 bits
Compression mode : Lossy
Stream size : 158 MiB (16%)
Alignment : Split accross interleaves
Interleave, duration : 42 ms (1.00 video frame)
Interleave, preload duratio : 500 ms
скриншот  скриншот  скриншот  
pb.wtf



Скачать Нарко: Мексика через торрент https://i108.fastpic.ru/big/2018/1215/d7/b64d767367d2900605c36be0653340d7.jpg Скачать фильм Нарко: Мексика через торрент бесплантно в хорошем качестве Описание: В 1980-х годах Феликс Галлардо решил объединить разрозненных и независимых производителей и дилеров наркотиков Мексики и ... 10 10 2
Торрент: Зарегистрирован [2018-12-22 07:48] · скачан: 23 раз
Статус: √ проверено
Размер: 10.19 GB
Как cкачать? Как скачать Нарко: Мексика через торрент | qTorrent

% Раздел Тема Автор DL S | L
Зарубежные сериалы [ 3.64 GB ] Нарко: Мексика / Narcos: Mexico / Сезон: 2 / Серии: 1-3 из 10 [2020 WEBRip] DVO [Кубик в Кубе] bober100 Скачать
1 | 0
Зарубежные сериалы [ 26.01 GB ] Нарко: Мексика / Narcos: Mexico / Сезон: 2 / Серии: 1-10 из 10 [2020 WEB-DL 1080p] MVO [Jaskier] bober100 Скачать
1 | 0
Зарубежные сериалы [ 12.97 GB ] Нарко: Мексика / Narcos: Mexico / Сезон: 2 / Серии: 1-10 из 10 [2020 WEB-DL 720p] MVO [Jaskier] bober100 Скачать
1 | 0
Зарубежные сериалы [ 6.73 GB ] Нарко: Мексика / Narcos: Mexico / Сезон: 2 / Серии: 1-10 из 10 [2020 WEB-DLRip] MVO [Jaskier] bober100 Скачать
1 | 0
Зарубежные сериалы [ 14.77 GB ] Нарко: Мексика / Narcos: Mexico / Сезон: 2 / Серии: 1-10 из 10 [2020 WEB-DL 720p] MVO [TVShows] bober100 Скачать
1 | 0
Зарубежные сериалы [ 33.61 GB ] Нарко: Мексика / Narcos: Mexico / Сезон: 2 / Серии: 1-10 из 10 [2020 WEB-DL 1080p] MVO [LostFilm] bober100 Скачать
1 | 0
Зарубежные сериалы [ 27.82 GB ] Нарко: Мексика / Narcos: Mexico / Сезон: 2 / Серии: 1-10 из 10 [2020 WEB-DL 1080p] MVO [TVShows] bober100 Скачать
1 | 0

28-11-2019 20:33  

Отключить всю рекламу на сайте

    Дорогой пользователь! Огромная просьба, поблагодарите релизера, оцените раздачу и оставьте свои комментарий, если Вы скачали Нарко: Мексика через торрент бесплатно! Внесите свою лепту в развитие PiratBit!
    Комментировать посты могут только пользователи прошедшие не сложную регистрацию
    Показать сообщения:    

    Нарко: Мексика через торрент
    Скачать бесплатно Нарко: Мексика
    Нарко: Мексика скачать торрент
    Нарко: Мексика смотреть онлайн
    Cкачать фильм Нарко: Мексика бесплатно
    Нарко: Мексика скачать торрент в хорошем качестве
    Нарко: Мексика смотреть онлайн бесплатно в хорошем качестве


    Вы не можете начинать темы
    Вы не можете отвечать на сообщения
    Вы не можете редактировать свои сообщения
    Вы не можете удалять свои сообщения
    Вы не можете голосовать в опросах
    Вы не можете прикреплять файлы к сообщениям
    Вы можете скачивать файлы