Всегда рабочее зеркало без VPN и Proxy просто перед .vidak.icu напиши любое слово или цифру, Пример http://f2z7.vidak.icu

MVO

Лицензия

1 сезон

1

1 сезон

iTunes

1 сезон

13

1 сезон

Deluxe

pack

Рекомендуем

Пиратка

30

ВАЖНО

RePack

MK11

RePack

jed

RePack

fifa19

RePack

RDR2

RePack

NEED FOR SPEED™ PAYBACK

Кинопоиск HD

6 сезон

 Острые козырьки 6 сезон

Все сериалы

все сериалы на PB.wtf

RePack

FAR CRY 5
  
Magnet ссылка

Розовая пантера 2 / The Pink Panther 2 (Харольд Цварт) [2009, комедия, криминал, детектив, приключения, семейный, BDRip 720p by msltel] DUB pb.wtf

Розовая пантера 2 через торрент pb.wtf

Размер: 4.46 GB | Добавлен: 3 года 6 мес. назад | Торрент скачан:47 раз
Смотреть онлайн Розовая пантера 2 | Скачать    Ребята, помогите собрать деньги на оплату серверов!!!

22-12-2018 09:07 Розовая пантера 2 Скачать торрент  

Название: Розовая пантера 2
Оригинальное название: The Pink Panther 2
Год выпуска: 2009
Страна: США
Жанр: комедия, криминал, детектив, приключения, семейный
Продолжительность: 01:32:01
Перевод: дублированный

Режиссер: Харольд Цварт
В ролях: Стив Мартин, Жан Рено, Эмили Мортимер, Энди Гарсиа, Юки Матсузаки, Альфред Молина, Айшвария Рай, Джон Клиз, Жюдит Годреш, Федерико Кастеллуччо, Зофиа Борука, Андрия Блэкмэн, Роджер Диллингэм-мл., Джейм Де Ла Роза, Ники Коннорс, Шон Патрик Доэрти, Дженнифер Гьюламети, Майкл Коппола, Джон Диксон (III), Тарек Мусса, Кимми Джонсон, Ричард ДеАгацио

О фильме: Успех предыдущей миссии Жака Клюзо позволил инспектору-катастрофе занять место среди лучших детективов мира. В этот раз ему предстоит поймать международного преступника, похищающего исторические ценности, и снова вернуть «Розовую пантеру» на место...



Качество: BDRip 720p
Формат: MKV
Видео: MPEG-4 AVC, 6040 Kбит/с, 1280x692
Аудио 1: русский, AC3, 448 kbps, 6 ch, 48 kHz [дублированный]
Аудио 2: английский, AC3, 448 kbps, 6 ch, 48 kHz [оригинал]
Субтитры 1: русские (надписи)
Субтитры 2: русские
Субтитры 3: английские
Главы/чаптеры
Общее
Уникальный идентификатор : 176655542466890947321716668795600392586 (0x84E69EB248AA3F58A687E93DEFA2518A)
Полное имя : D:\Video\Розовая пантера 2.2009.BDRip 720p by msltel.mkv
Формат : Matroska
Версия формата : Version 4
Размер файла : 4,46 Гбайт
Продолжительность : 1 ч. 32 м.
Общий поток : 6939 Кбит/сек
Название фильма : Rip by msltel
Дата кодирования : UTC 2018-12-22 07:18:32
Программа кодирования : mkvmerge v8.2.0 ('World of Adventure') 64bit
Библиотека кодирования : libebml v1.3.1 + libmatroska v1.4.2

Видео
Идентификатор : 1
Формат : AVC
Формат/Информация : Advanced Video Codec
Профиль формата : High@L4.1
Настройки формата : CABAC / 9 Ref Frames
Параметр CABAC формата : Да
Параметр RefFrames формата : 9 кадров
Идентификатор кодека : V_MPEG4/ISO/AVC
Продолжительность : 1 ч. 32 м.
Битрейт : 6040 Кбит/сек
Ширина : 1280 пикселей
Высота : 692 пикселя
Соотношение сторон : 1,85:1
Режим частоты кадров : Постоянный
Частота кадров : 23,976 (24000/1001) кадра/сек
Цветовое пространство : YUV
Субдискретизация насыщенности : 4:2:0
Битовая глубина : 8 бит
Тип развёртки : Прогрессивная
Бит/(Пиксели*Кадры) : 0.284
Размер потока : 3,88 Гбайт (87%)
Библиотека кодирования : x264 core 157 r2935 545de2f
Настройки программы : cabac=1 / ref=9 / deblock=1:-2:-2 / analyse=0x3:0x113 / me=umh / subme=11 / psy=1 / psy_rd=1.00:0.15 / mixed_ref=1 / me_range=32 / chroma_me=1 / trellis=2 / 8x8dct=1 / cqm=0 / deadzone=21,11 / fast_pskip=0 / chroma_qp_offset=-3 / threads=6 / lookahead_threads=1 / sliced_threads=0 / nr=0 / decimate=1 / interlaced=0 / bluray_compat=0 / constrained_intra=0 / bframes=9 / b_pyramid=2 / b_adapt=2 / b_bias=0 / direct=1 / weightb=1 / open_gop=0 / weightp=2 / keyint=230 / keyint_min=23 / scenecut=40 / intra_refresh=0 / rc_lookahead=40 / rc=crf / mbtree=0 / crf=18.7 / qcomp=0.60 / qpmin=0 / qpmax=69 / qpstep=4 / vbv_maxrate=62500 / vbv_bufsize=78125 / crf_max=0.0 / nal_hrd=none / filler=0 / ip_ratio=1.40 / pb_ratio=1.30 / aq=1:1.00
Язык : English
Default : Да
Forced : Нет

Аудио #1
Идентификатор : 2
Формат : AC-3
Формат/Информация : Audio Coding 3
Коммерческое название : Dolby Digital
Идентификатор кодека : A_AC3
Продолжительность : 1 ч. 32 м.
Вид битрейта : Постоянный
Битрейт : 448 Кбит/сек
Каналы : 6 каналов
Channel layout : L R C LFE Ls Rs
Частота : 48,0 КГц
Частота кадров : 31,250 кадров/сек (1536 SPF)
Битовая глубина : 16 бит
Метод сжатия : С потерями
Размер потока : 295 Мбайт (6%)
Заголовок : DUB
Язык : Russian
ServiceKind/String : Complete Main
Default : Да
Forced : Нет

Аудио #2
Идентификатор : 3
Формат : AC-3
Формат/Информация : Audio Coding 3
Коммерческое название : Dolby Digital
Идентификатор кодека : A_AC3
Продолжительность : 1 ч. 32 м.
Вид битрейта : Постоянный
Битрейт : 448 Кбит/сек
Каналы : 6 каналов
Channel layout : L R C LFE Ls Rs
Частота : 48,0 КГц
Частота кадров : 31,250 кадров/сек (1536 SPF)
Битовая глубина : 16 бит
Метод сжатия : С потерями
Размер потока : 295 Мбайт (6%)
Заголовок : original
Язык : English
ServiceKind/String : Complete Main
Default : Нет
Forced : Нет

Текст #1
Идентификатор : 4
Формат : UTF-8
Идентификатор кодека : S_TEXT/UTF8
Идентификатор кодека/Информация : UTF-8 Plain Text
Продолжительность : 1 ч. 10 м.
Битрейт : 2 бит/сек
ElementCount : 21
Размер потока : 1,08 Кбайт (0%)
Заголовок : русские надписи
Язык : Russian
Default : Да
Forced : Да

Текст #2
Идентификатор : 5
Формат : UTF-8
Идентификатор кодека : S_TEXT/UTF8
Идентификатор кодека/Информация : UTF-8 Plain Text
Продолжительность : 1 ч. 26 м.
Битрейт : 108 бит/сек
ElementCount : 1009
Размер потока : 68,9 Кбайт (0%)
Заголовок : русские
Язык : Russian
Default : Нет
Forced : Нет

Текст #3
Идентификатор : 6
Формат : UTF-8
Идентификатор кодека : S_TEXT/UTF8
Идентификатор кодека/Информация : UTF-8 Plain Text
Продолжительность : 1 ч. 26 м.
Битрейт : 64 бит/сек
ElementCount : 978
Размер потока : 41,1 Кбайт (0%)
Заголовок : английские
Язык : English
Default : Нет
Forced : Нет

Меню
00:00:00.000 : en:00:00:00.000
00:03:19.282 : en:00:03:19.282
00:04:48.747 : en:00:04:48.747
00:07:45.090 : en:00:07:45.090
00:12:14.275 : en:00:12:14.275
00:15:54.370 : en:00:15:54.370
00:19:09.690 : en:00:19:09.690
00:24:00.773 : en:00:24:00.773
00:25:32.656 : en:00:25:32.656
00:27:21.974 : en:00:27:21.974
00:29:34.856 : en:00:29:34.856
00:30:41.381 : en:00:30:41.381
00:32:53.889 : en:00:32:53.889
00:36:31.564 : en:00:36:31.564
00:38:24.302 : en:00:38:24.302
00:43:45.331 : en:00:43:45.331
00:49:08.654 : en:00:49:08.654
00:53:32.626 : en:00:53:32.626
00:55:27.991 : en:00:55:27.991
00:59:09.254 : en:00:59:09.254
01:01:54.920 : en:01:01:54.920
01:06:15.722 : en:01:06:15.722
01:09:51.729 : en:01:09:51.729
01:12:57.999 : en:01:12:57.999
01:16:40.262 : en:01:16:40.262
01:20:03.882 : en:01:20:03.882
01:23:34.843 : en:01:23:34.843
01:27:30.245 : en:01:27:30.245
pb.wtf



Скачать Розовая пантера 2 через торрент https://c.radikal.ru/c20/1812/57/8d4307d29e2e.png Скачать, смотреть онлайн Розовая пантера 2 бесплантно в хорошем качестве О фильме: Успех предыдущей миссии Жака Клюзо позволил инспектору-катастрофе занять место среди лучших детективов мира. В этот раз ему ... 10 10 2
Info! Золотая раздача, скачанное не засчитывается.
Торрент: Зарегистрирован [2018-12-24 07:44] · скачан: 47 раз
Статус: √ проверено
Размер: 4.46 GB
Как cкачать? Как скачать Розовая пантера 2 через торрент | UTorrent

% Раздел Тема Автор DL S | L
Фильмы [HD 720p, 1080p] (Хороший звук DUB, MVO) [ 11.97 GB ] Розовая пантера 2 / The Pink Panther 2 [2009 BDRip 1080p by msltel] DUB msltel Скачать
1 | 0
Фильмы 2009 [ 1.37 GB ] Розовая пантера 2 / The Pink Panther 2 [2009 BDRip-AVC] DUB -=Cherry=- Скачать
1 | 0

28-11-2019 20:33  

Отключить всю рекламу на сайте

24-12-2018 07:44 Розовая пантера 2 Скачать торрент  

Приятного просмотра...pb.wtf





Последний раз редактировалось: msltel (2018-12-25 08:48), всего редактировалось 1 раз

24-12-2018 14:30 Розовая пантера 2 Скачать торрент  

Спасибо msltel!pb.wtf



    Дорогой пользователь! Огромная просьба, поблагодарите релизера, оцените раздачу и оставьте свои комментарий, если Вы скачали Розовая пантера 2 через торрент бесплатно!
    Комментировать посты могут только пользователи прошедшие не сложную регистрацию
    Показать сообщения:    

    Розовая пантера 2 через торрент
    Скачать бесплатно Розовая пантера 2
    Розовая пантера 2 скачать торрент
    Розовая пантера 2 смотреть онлайн
    Cкачать фильм Розовая пантера 2 бесплатно
    Розовая пантера 2 скачать торрент в хорошем качестве
    Розовая пантера 2 смотреть онлайн бесплатно в хорошем качестве


    Вы не можете начинать темы
    Вы не можете отвечать на сообщения
    Вы не можете редактировать свои сообщения
    Вы не можете удалять свои сообщения
    Вы не можете голосовать в опросах
    Вы не можете прикреплять файлы к сообщениям
    Вы можете скачивать файлы