Ссылка на приватное зеркало всего за 1$. Внимание количество ограничено!!!

OK

1+1

iTunes

мы

OK

1

WEB-DLRip

Джокер

Пифагор

Ведьмак / The Witcher сериал

iTunes

ПШазам

ОК

Оно 2

iTunes

30
pack

Вам бонус

ВАЖНО

!!Акция!!

Alien_RageХит недели

RePack

Resident Evil 21

ИГРА 18+

pack

RePack

jed

RePack

fifa19

RePack

Assassins Creed: Odyssey

RePack

NEED FOR SPEED™ PAYBACK

4 сезон

9 сезон

Бесстыжие 9 сезон

Все сериалы

все сериалы на PB.wtf

RePack

FAR CRY 5
  

Под розой / Bajo la Rosa / Under the Rose (Хосе Рамос) [2017, Ужасы, BDRip 720p] MVO ["Синема УС"] pb.wtf

Под розой через торрент pb.wtf

Размер: 4.95 GB | Добавлен: 1 год 1 мес. назад | Торрент скачан:29 раз
Скачать  

22-12-2018 09:08 Под розой Скачать торрент  

Под розой / Bajo la Rosa / Under the RoseГод выпуска: 2017
Страна: Испания
Жанр: Ужасы
Продолжительность: 01:41:43
Перевод: Любительский (многоголосый) | "Синема УС"
Субтитры: отсутствуют

Режиссер: Хосе Рамос

rating

В ролях:

Рамиро Блас, Педро Касабланк, Игнасио Фернандес, Элизабет Гелаберт, Зак Гомес, Микель Инсуа

Описание:

Сара, дочь Оливера и Джулии, внезапно исчезает. Дни проходят без каких-либо новостей о девушке. Но однажды утром семья получает письмо от кого-то, кто утверждает, что задержал Сару и хочет поговорить с ними в ту ночь.

Качество: BDRip 720p
Формат: MKV

Видео: 6517 kb/s, 1280x544
Аудио: Русский (AC3, 2 ch, 448 Кбит/с)
скриншот  скриншот  скриншот  

Общее
Уникальный идентификатор : 240505401884313787629025834461592758106 (0xB4EFA7D0A7F2C676B9CBA98739C7275A)
Полное имя : D:\Bajo.La.Rosa.[Under.The.Rose].2017.P.BDRip.72Op_KOSHARA.mkv
Формат : Matroska
Версия формата : Version 2
Размер файла : 4,95 Гбайт
Продолжительность : 1 ч. 41 м.
Режим общего битрейта : Переменный
Общий поток : 6967 Кбит/сек
Дата кодирования : UTC 2018-12-21 15:21:02
Программа кодирования : mkvmerge v8.3.0 ('Over the Horizon') 64bit
Библиотека кодирования : libebml v1.3.1 + libmatroska v1.4.2

Видео
Идентификатор : 1
Формат : AVC
Формат/Информация : Advanced Video Codec
Профиль формата : High@L4.1
Параметр CABAC формата : Да
Параметр RefFrames формата : 4 кадра
Идентификатор кодека : V_MPEG4/ISO/AVC
Продолжительность : 1 ч. 41 м.
Вид битрейта : Переменный
Битрейт : 6514 Кбит/сек
Максимальный битрейт : 7400 Кбит/сек
Ширина : 1280 пикселей
Высота : 544 пикселя
Соотношение сторон : 2,35:1
Режим частоты кадров : Постоянный
Частота кадров : 23,976 (24000/1001) кадра/сек
Стандарт вещания : Component
Цветовое пространство : YUV
Субдискретизация насыщенности : 4:2:0
Битовая глубина : 8 бит
Тип развёртки : Прогрессивная
Бит/(Пиксели*Кадры) : 0.382
Размер потока : 4,53 Гбайт (92%)
Default : Да
Forced : Нет
Цветовой диапазон : Limited
Основные цвета : BT.709
Характеристики трансфера : BT.709
Коэффициенты матрицы : BT.709

Аудио
Идентификатор : 2
Формат : AC-3
Формат/Информация : Audio Coding 3
Расширение режима : CM (complete main)
Параметр Endianness формата : Big
Идентификатор кодека : A_AC3
Продолжительность : 1 ч. 41 м.
Вид битрейта : Постоянный
Битрейт : 448 Кбит/сек
Каналы : 2 канала
Расположение каналов : Front: L R
Частота : 48,0 КГц
Частота кадров : 31,250 кадров/сек (1536 spf)
Метод сжатия : С потерями
Размер потока : 326 Мбайт (6%)
Default : Да
Forced : Нет

pb.wtf



Скачать Под розой через торрент https://a.radikal.ru/a24/1812/02/00dee15dd2ec.jpg Скачать фильм Под розой через торрент бесплантно в хорошем качестве Описание: Сара, дочь Оливера и Джулии, внезапно исчезает. Дни проходят без каких-либо новостей о девушке. Но однажды утром семья получает ... 10 10 2
Торрент: Зарегистрирован [2018-12-22 09:08] · скачан: 29 раз
Статус: # сомнительно
Размер: 4.95 GB
Как cкачать? Как скачать Под розой через торрент | qTorrent

% Раздел Тема Автор DL S | L
T Фильмы (мультфильмы) cо спонсором показа (Новинки AVI/MKV) [ 1.45 GB ] Под розой / Bajo la Rosa / Under the Rose [2017 HDRip] MVO ["Синема УС"] bober100 Скачать
1 | 0

28-11-2019 20:33  

Отключить всю рекламу на сайте

    Дорогой пользователь! Огромная просьба, поблагодарите релизера, оцените раздачу и оставьте свои комментарий, если Вы скачали Под розой через торрент бесплатно! Внесите свою лепту в развитие PiratBit!
    Комментировать посты могут только пользователи прошедшие не сложную регистрацию
    Показать сообщения:    

    Под розой через торрент
    Скачать бесплатно Под розой
    Под розой скачать торрент
    Под розой смотреть онлайн
    Cкачать фильм Под розой бесплатно
    Под розой скачать торрент в хорошем качестве
    Под розой смотреть онлайн бесплатно в хорошем качестве


    Вы не можете начинать темы
    Вы не можете отвечать на сообщения
    Вы не можете редактировать свои сообщения
    Вы не можете удалять свои сообщения
    Вы не можете голосовать в опросах
    Вы не можете прикреплять файлы к сообщениям
    Вы можете скачивать файлы