Ссылка на приватное зеркало всего за 1$. Внимание количество ограничено!!!

iTunes

iTunes

iTunes

1

iTunes

iTunes

iTunes

WEBRip

iTunes

30
pack

$ от Little Big

ВАЖНО

!!Акция!!

Alien_RageХит недели

RePack

Resident Evil 21

ИГРА 18+

pack

RePack

jed

!!Акция!!

Alien_Rage

RePack

fifa19

RePack

Assassins Creed: Odyssey

RePack

NEED FOR SPEED™ PAYBACK

4 сезон

9 сезон

Бесстыжие 9 сезон

Все сериалы

все сериалы на PB.wtf

RePack

FAR CRY 5
  

Карпентер / Karpenter (Кристиан Акерман) [2017, Ужасы, WEB-DL 720p] MVO [КОЛОБОК] pb.wtf

Карпентер через торрент pb.wtf

Размер: 1.91 GB | Добавлен: 1 год 7 мес. назад | Торрент скачан:11 раз
Скачать  

22-12-2018 12:46 Карпентер Скачать торрент  

Карпентер / KarpenterГод выпуска: 2017
Страна: США
Жанр: Ужасы
Продолжительность: 01:01:48
Перевод: Любительский (многоголосый) | КОЛОБОК
Субтитры: отсутствуют

Режиссер: Кристиан Акерман

rating

В ролях:

Даниэль Акерман, Дон Эрл, Райли Эрл

Описание:

Когда серийный убийца вырывается на свободу, юной девушке приходится противостоять маньяку-психопату с топором, чтобы как-то пережить ночь в канун Хэллоуина..

Качество: WEB-DL 720p
Формат: MKV

Видео: h.264,3945 Кбит/с, 1280x544
Аудио#1: Русский, (AC3, 2 ch, 384 Кбит/с)
скриншот  скриншот  скриншот  

Общее
Уникальный идентификатор : 229859745408654709515160304398275917519 (0xACED606D641DFE46812D5F20D87736CF)
Полное имя : D:\Karpenter.2017.P.WEB-DL.72Op.mkv
Формат : Matroska
Версия формата : Version 2
Размер файла : 1,91 Гбайт
Продолжительность : 1 ч. 1 м.
Режим общего битрейта : Переменный
Общий поток : 4417 Кбит/сек
Дата кодирования : UTC 2018-12-22 09:55:05
Программа кодирования : mkvmerge v8.3.0 ('Over the Horizon') 64bit
Библиотека кодирования : libebml v1.3.1 + libmatroska v1.4.2

Видео
Идентификатор : 1
Формат : AVC
Формат/Информация : Advanced Video Codec
Профиль формата : High@L4.1
Параметр CABAC формата : Да
Параметр RefFrames формата : 4 кадра
Идентификатор кодека : V_MPEG4/ISO/AVC
Продолжительность : 1 ч. 1 м.
Вид битрейта : Переменный
Битрейт : 3945 Кбит/сек
Максимальный битрейт : 5000 Кбит/сек
Ширина : 1280 пикселей
Высота : 544 пикселя
Соотношение сторон : 2,35:1
Режим частоты кадров : Постоянный
Частота кадров : 23,976 (24000/1001) кадра/сек
Стандарт вещания : Component
Цветовое пространство : YUV
Субдискретизация насыщенности : 4:2:0
Битовая глубина : 8 бит
Тип развёртки : Прогрессивная
Бит/(Пиксели*Кадры) : 0.236
Размер потока : 1,70 Гбайт (89%)
Default : Да
Forced : Нет
Цветовой диапазон : Limited
Основные цвета : BT.709
Характеристики трансфера : BT.709
Коэффициенты матрицы : BT.709

Аудио
Идентификатор : 2
Формат : AC-3
Формат/Информация : Audio Coding 3
Расширение режима : CM (complete main)
Параметр Endianness формата : Big
Идентификатор кодека : A_AC3
Продолжительность : 1 ч. 1 м.
Вид битрейта : Постоянный
Битрейт : 384 Кбит/сек
Каналы : 2 канала
Расположение каналов : Front: L R
Частота : 48,0 КГц
Частота кадров : 31,250 кадров/сек (1536 spf)
Метод сжатия : С потерями
Размер потока : 170 Мбайт (9%)
Default : Да
Forced : Нет

pb.wtf



Скачать Карпентер через торрент https://d.radikal.ru/d04/1812/86/17ec553699e5.jpg Скачать фильм Карпентер через торрент бесплантно в хорошем качестве Описание: Когда серийный убийца вырывается на свободу, юной девушке приходится противостоять маньяку-психопату с топором, чтобы как-то ... 10 10 2
Торрент: Зарегистрирован [2018-12-22 12:46] · скачан: 11 раз
Статус: T временная
Размер: 1.91 GB
Как cкачать? Как скачать Карпентер через торрент | qTorrent

% Раздел Тема Автор DL S | L
T Фильмы (мультфильмы) cо спонсором показа (Новинки AVI/MKV) [ 745 MB ] Карпентер / Karpenter [2017 WEB-DLRip] MVO [КОЛОБОК] bober100 Скачать
1 | 0

28-11-2019 20:33  

Отключить всю рекламу на сайте

    Дорогой пользователь! Огромная просьба, поблагодарите релизера, оцените раздачу и оставьте свои комментарий, если Вы скачали Карпентер через торрент бесплатно! Внесите свою лепту в развитие PiratBit!
    Комментировать посты могут только пользователи прошедшие не сложную регистрацию
    Показать сообщения:    

    Карпентер через торрент
    Скачать бесплатно Карпентер
    Карпентер скачать торрент
    Карпентер смотреть онлайн
    Cкачать фильм Карпентер бесплатно
    Карпентер скачать торрент в хорошем качестве
    Карпентер смотреть онлайн бесплатно в хорошем качестве


    Вы не можете начинать темы
    Вы не можете отвечать на сообщения
    Вы не можете редактировать свои сообщения
    Вы не можете удалять свои сообщения
    Вы не можете голосовать в опросах
    Вы не можете прикреплять файлы к сообщениям
    Вы можете скачивать файлы