Ссылка на приватное зеркало всего за 1$. Внимание количество ограничено!!!

OK

1+1

iTunes

мы

OK

1

WEB-DLRip

Джокер

Пифагор

Ведьмак / The Witcher сериал

iTunes

ПШазам

ОК

Оно 2

iTunes

30
pack

Вам бонус

ВАЖНО

!!Акция!!

Alien_RageХит недели

RePack

Resident Evil 21

ИГРА 18+

pack

RePack

jed

RePack

fifa19

RePack

Assassins Creed: Odyssey

RePack

NEED FOR SPEED™ PAYBACK

4 сезон

9 сезон

Бесстыжие 9 сезон

Все сериалы

все сериалы на PB.wtf

RePack

FAR CRY 5
  

Змеи / Snakes (Линь Чжэньчжао) [2018, боевик, приключения, WEB-DL 720p] MVO [КОЛОБОК] pb.wtf

Змеи через торрент pb.wtf

Размер: 3.03 GB | Добавлен: 1 год 1 мес. назад | Торрент скачан:82 раза
Скачать  

22-12-2018 13:54 Змеи Скачать торрент  

Змеи / SnakesГод выпуска: 2018
Страна: Китай
Жанр: боевик, приключения
Продолжительность: 01:20:32
Перевод: Любительский (многоголосый) | КОЛОБОК
Субтитры: отсутствуют

Режиссер: Линь Чжэньчжао



В ролях:

Хуан Кайлунь, Чжэн Юэ, Си Мэйли, Ян Юн, Сян Ян, Тан Синь, Цзян Дяньвэй, Мао Чжэньси, Наомэнь Эрдэни

Описание:

Однажды на пороге дома простого школьного учителя, автора осмеянной научным миром "Доисторической энциклопедии", появляется миллиардер уверяющий, что он нашёл остров - где растёт легендарное "кровавое яблоко", тот самый плод, что ответственнен за появление реликтовых животных в современном мире. Вместе с группой специалистов им предстоит исследовать этот затерянный мир.

Качество: WEB-DL 720p
Формат: MKV

Видео: h.264, 4 999 Кбит/с, 1280x536
Аудио#1: Русский, (AC3, 2 ch, 384 Кбит/с)
скриншот  скриншот  скриншот  

Общее
Уникальный идентификатор : 174223893376568298025755117756900550557 (0x83124D23D7BB255882FA34E316A9A79D)
Полное имя : D:\Snake.2O18.Pk.WEB-DL.72Op.mkv
Формат : Matroska
Версия формата : Version 2
Размер файла : 3,03 Гбайт
Продолжительность : 1 ч. 20 м.
Режим общего битрейта : Переменный
Общий поток : 5384 Кбит/сек
Дата кодирования : UTC 2018-12-21 12:04:56
Программа кодирования : mkvmerge v8.3.0 ('Over the Horizon') 64bit
Библиотека кодирования : libebml v1.3.1 + libmatroska v1.4.2

Видео
Идентификатор : 1
Формат : AVC
Формат/Информация : Advanced Video Codec
Профиль формата : High@L4.1
Параметр CABAC формата : Да
Параметр RefFrames формата : 4 кадра
Идентификатор кодека : V_MPEG4/ISO/AVC
Продолжительность : 1 ч. 20 м.
Вид битрейта : Переменный
Битрейт : 4999 Кбит/сек
Максимальный битрейт : 5500 Кбит/сек
Ширина : 1280 пикселей
Высота : 536 пикселей
Соотношение сторон : 2,40:1
Режим частоты кадров : Постоянный
Частота кадров : 23,976 (24000/1001) кадра/сек
Стандарт вещания : Component
Цветовое пространство : YUV
Субдискретизация насыщенности : 4:2:0
Битовая глубина : 8 бит
Тип развёртки : Прогрессивная
Бит/(Пиксели*Кадры) : 0.297
Размер потока : 2,75 Гбайт (91%)
Default : Да
Forced : Нет
Цветовой диапазон : Limited
Основные цвета : BT.709
Характеристики трансфера : BT.709
Коэффициенты матрицы : BT.709

Аудио
Идентификатор : 2
Формат : AC-3
Формат/Информация : Audio Coding 3
Расширение режима : CM (complete main)
Параметр Endianness формата : Big
Идентификатор кодека : A_AC3
Продолжительность : 1 ч. 20 м.
Вид битрейта : Постоянный
Битрейт : 384 Кбит/сек
Каналы : 2 канала
Расположение каналов : Front: L R
Частота : 48,0 КГц
Частота кадров : 31,250 кадров/сек (1536 spf)
Метод сжатия : С потерями
Размер потока : 221 Мбайт (7%)
Default : Да
Forced : Нет

pb.wtf



Скачать Змеи через торрент http://img15.lostpic.net/2018/12/22/e117492d33ca0f1067713b19a7ba31b1.jpg Скачать фильм Змеи через торрент бесплантно в хорошем качестве Описание: Однажды на пороге дома простого школьного учителя, автора осмеянной научным миром "Доисторической энциклопедии", появляется ... 10 10 5
Торрент: Зарегистрирован [2018-12-22 13:54] · скачан: 82 раз
Статус: T временная
Размер: 3.03 GB
Как cкачать? Как скачать Змеи через торрент | qTorrent

% Раздел Тема Автор DL S | L
T Фильмы (мультфильмы) cо спонсором показа (Новинки AVI/MKV) [ 1.37 GB ] Змеи / Snakes [2018 WEB-DLRip] MVO [КОЛОБОК] bober100 Скачать
1 | 0
Документальные фильмы и телепередачи [ 2.35 GB ] Самые опасные змеи с Найджелом Марвином / Ten Deadliest Snakes with Nigel Marven [2014 Документальный HDTVRip ] Бумер Скачать
1 | 0
Discovery [ 1.71 GB ] Красота змей / The Beauty Of Snakes BDRip [720p/H.264] [2003 документальный BDRip DUB] jump88 Скачать
1 | 0
Фильмы 2006-2008 [ 1.46 GB ] Змеиный полет / Snakes on a Plane [2006 HDRip DUB лицензия] lev1244v Скачать
1 | 0
National Geographic [ 1.64 GB ] National Geographic: Самые опасные змеи в мире / Worlds deadliest snakes [2010 Документальный флора фауна HDTVRip 720p] кэп Скачать
1 | 0
National Geographic [ 2.29 GB ] Самые опасные змеи в мире / World's deadliest snakes [2010 документальный познавательный HDTV ] markfiter Скачать
1 | 0
Фильмы 2006-2008 [ 2.47 GB ] Змеиный полет / Snakes on a Plane [2006 BDRip] -=BIGBOSS=- Скачать
1 | 0

28-11-2019 20:33  

Отключить всю рекламу на сайте

    Дорогой пользователь! Огромная просьба, поблагодарите релизера, оцените раздачу и оставьте свои комментарий, если Вы скачали Змеи через торрент бесплатно! Внесите свою лепту в развитие PiratBit!
    Комментировать посты могут только пользователи прошедшие не сложную регистрацию
    Показать сообщения:    

    Змеи через торрент
    Скачать бесплатно Змеи
    Змеи скачать торрент
    Змеи смотреть онлайн
    Cкачать фильм Змеи бесплатно
    Змеи скачать торрент в хорошем качестве
    Змеи смотреть онлайн бесплатно в хорошем качестве


    Вы не можете начинать темы
    Вы не можете отвечать на сообщения
    Вы не можете редактировать свои сообщения
    Вы не можете удалять свои сообщения
    Вы не можете голосовать в опросах
    Вы не можете прикреплять файлы к сообщениям
    Вы можете скачивать файлы