Ссылка на приватное зеркало всего за 1$. Внимание количество ограничено!!!

OK

1+1

iTunes

мы

OK

1

WEB-DLRip

Джокер

Пифагор

Ведьмак / The Witcher сериал

Лицензия

ПШазам

ОК

Оно 2

iTunes

30
pack

Вам бонус

ВАЖНО

!!Акция!!

Alien_RageХит недели

RePack

Resident Evil 21

ИГРА 18+

pack

RePack

jed

RePack

fifa19

RePack

Assassins Creed: Odyssey

RePack

NEED FOR SPEED™ PAYBACK

4 сезон

9 сезон

Бесстыжие 9 сезон

Все сериалы

все сериалы на PB.wtf

RePack

FAR CRY 5
  

Куэрнавака / Cuernavaca (Алехандро Андраде) [2017, драма, WEB-DL 720p] MVO ["Синема УС"] pb.wtf

Куэрнавака через торрент pb.wtf

Размер: 3.31 GB | Добавлен: 1 год назад | Торрент скачан:7 раз
Скачать  

22-12-2018 14:12 Куэрнавака Скачать торрент  

Куэрнавака / CuernavacaГод выпуска: 2017
Страна: Мексика
Жанр: драма
Продолжительность: 01:31:08
Перевод: Любительский (многоголосый) | "Синема УС"
Субтитры: отсутствуют

Режиссер: Алехандро Андраде

rating

В ролях:

Мойсес Арисменди, Мариана Гаха, Кармен Маура, Эмилио Пуэнте

Описание:

Энди после несчастного случая в кафе, когда преступники наносят тяжелое ранение его маме, вынужден переехать в Куэрнаваку в дом бабушки по отцу. Понимая, что в этом новом мире он никому не нужен, главный герой решает разыскать своего отца.

Качество: WEB-DL 720p
Формат: MKV

Видео: h.264,4 816 kb/s, 1280x538
Аудио#1: Русский, (AC3, 2 ch, 384 Кбит/с)
скриншот  скриншот  скриншот  

Общее
Уникальный идентификатор : 180792959511187424509421716476415364301 (0x8803751B294ABEA39C51B9B0A27ECCCD)
Полное имя : D:\Cuernavaca.2018.P.WEB-DL.72Op_KOSHARA.mkv
Формат : Matroska
Версия формата : Version 2
Размер файла : 3,31 Гбайт
Продолжительность : 1 ч. 31 м.
Режим общего битрейта : Переменный
Общий поток : 5202 Кбит/сек
Дата кодирования : UTC 2018-12-21 11:21:06
Программа кодирования : mkvmerge v8.3.0 ('Over the Horizon') 64bit
Библиотека кодирования : libebml v1.3.1 + libmatroska v1.4.2

Видео
Идентификатор : 1
Формат : AVC
Формат/Информация : Advanced Video Codec
Профиль формата : High@L4.1
Параметр CABAC формата : Да
Параметр RefFrames формата : 4 кадра
Идентификатор кодека : V_MPEG4/ISO/AVC
Продолжительность : 1 ч. 31 м.
Вид битрейта : Переменный
Битрейт : 4815 Кбит/сек
Максимальный битрейт : 5500 Кбит/сек
Ширина : 1280 пикселей
Высота : 538 пикселей
Соотношение сторон : 2,40:1
Режим частоты кадров : Постоянный
Частота кадров : 23,976 (24000/1001) кадра/сек
Стандарт вещания : Component
Цветовое пространство : YUV
Субдискретизация насыщенности : 4:2:0
Битовая глубина : 8 бит
Тип развёртки : Прогрессивная
Бит/(Пиксели*Кадры) : 0.286
Размер потока : 3,00 Гбайт (91%)
Default : Да
Forced : Нет
Цветовой диапазон : Limited
Основные цвета : BT.709
Характеристики трансфера : BT.709
Коэффициенты матрицы : BT.709

Аудио
Идентификатор : 2
Формат : AC-3
Формат/Информация : Audio Coding 3
Расширение режима : CM (complete main)
Параметр Endianness формата : Big
Идентификатор кодека : A_AC3
Продолжительность : 1 ч. 31 м.
Вид битрейта : Постоянный
Битрейт : 384 Кбит/сек
Каналы : 2 канала
Расположение каналов : Front: L R
Частота : 48,0 КГц
Частота кадров : 31,250 кадров/сек (1536 spf)
Метод сжатия : С потерями
Размер потока : 250 Мбайт (7%)
Default : Да
Forced : Нет

pb.wtf



Скачать Куэрнавака через торрент https://a.radikal.ru/a19/1812/20/e220ac212506.jpg Скачать фильм Куэрнавака через торрент бесплантно в хорошем качестве Описание: Энди после несчастного случая в кафе, когда преступники наносят тяжелое ранение его маме, вынужден переехать в Куэрнаваку в дом ... 10 10 2
Торрент: Зарегистрирован [2018-12-22 14:12] · скачан: 7 раз
Статус: T временная
Размер: 3.31 GB
Как cкачать? Как скачать Куэрнавака через торрент | qTorrent

% Раздел Тема Автор DL S | L
T Фильмы (мультфильмы) cо спонсором показа (Новинки AVI/MKV) [ 1.37 GB ] Куэрнавака / Cuernavaca [2017 WEB-DLRip] MVO ["Синема УС"] bober100 Скачать
1 | 0

28-11-2019 20:33  

Отключить всю рекламу на сайте


    Дорогой пользователь! Огромная просьба, поблагодарите релизера, оцените раздачу и оставьте свои комментарий, если Вы скачали Куэрнавака через торрент бесплатно! Внесите свою лепту в развитие PiratBit!
    Комментировать посты могут только пользователи прошедшие не сложную регистрацию
    Показать сообщения:    

    Куэрнавака через торрент
    Скачать бесплатно Куэрнавака
    Куэрнавака скачать торрент
    Куэрнавака смотреть онлайн
    Cкачать фильм Куэрнавака бесплатно
    Куэрнавака скачать торрент в хорошем качестве
    Куэрнавака смотреть онлайн бесплатно в хорошем качестве


    Вы не можете начинать темы
    Вы не можете отвечать на сообщения
    Вы не можете редактировать свои сообщения
    Вы не можете удалять свои сообщения
    Вы не можете голосовать в опросах
    Вы не можете прикреплять файлы к сообщениям
    Вы можете скачивать файлы