Ссылка на приватное зеркало нашего сайта всего за 1$. Внимание количество ограничено!!!

2 сезон

iTunes

1 сезон

1

2 сезон

2 сезон

iTunes

1 сезон

RePack

30

Ultimate

ВАЖНО

ИГРА 18+

pack

RePack

MK11
pack

Забери бонус

RePack

jed

!!Акция!!

Alien_Rage

RePack

fifa19

RePack

Assassins Creed: Odyssey

RePack

NEED FOR SPEED™ PAYBACK

4 сезон

9 сезон

Бесстыжие 9 сезон

Все сериалы

все сериалы на PB.wtf

RePack

FAR CRY 5
  

Фортитьюд / Fortitude / Сезон 3 / Серии 1-4 (4) (Сэм Миллер) [2018, триллер, драма, детектив, HDTV 720p] [MVO] (AlexFilm) pb.wtf

Фортитьюд через торрент pb.wtf

Размер: 5.61 GB | Добавлен: 1 год 11 мес. назад | Торрент скачан:79 раз
Скачать  

22-12-2018 14:53 Фортитьюд Скачать торрент  



Фортитьюд / Fortitude
3 сезон, 1-1 серии из 4


Год выпуска: 2018
Страна: Великобритания
Жанр: триллер, драма, детектив
Продолжительность: ~ 00:47:00
Озвучание: Профессиональное (многоголосое закадровое) (AlexFilm)
Режиссёры: Сэм Миллер, Ричард Лэкстон, Хетти Макдональд, Ник Харран

В ролях: Кристофер Экклстон, Майкл Гэмбон, Ричард Дормер, Стэнли Туччи, Софи Гробёль, Николас Пиннок, Джессика Рэйн, Вероника Эчеги, Люк Тредэвэй, Сиенна Гиллори, Джонни Харрис, Даррен Бойд, Миа Ексен, Александра Моэн, Бьерн Хлинур Харальдссон, Аарон Маккаскер, Майкл Обиора, Эмиль Хостина, Чипо Чанг...
Описание: Очередное убийство в сонном городке — на этот раз на краю Арктики. Детектив Мортон прибывает в полярный Фортитьюд, чтобы расследовать волну загадочных преступлений в живописном и некогда тихом местечке.
Релиз:

Перевод: Константин Кривоногов
Монтаж и сведение звука: Михаил Шорыгин
Роли озвучивали:
    • Екатерина Муравицкая
    • Маргарита Корш
    • Владимир Курдов
    • Алексей Никитин
    • Кирилл Патрино
    • Михаил Федосеев

Сэмпл: http://sendfile.su/1463075

Качество: HDTV 720p
Формат: MKV
Видео: 1280x640, 25 fps, MPEG-4 AVC, ~4000 kbps avg, 0.194 bit/pixel
Аудио Rus: 48 kHz, AC3 Dolby Digital, 2/0 (L,R) ch, ~192.00 kbps
Аудио Eng: 48 kHz, AC3 Dolby Digital, 2/0 (L,R) ch, ~192.00 kbps
Субтитры: нет
скриншот  скриншот  скриншот  
Формат : Matroska
Версия формата : Version 4 / Version 2
Размер файла : 1,46 Гбайт
Продолжительность : 47 м. 50 с.
Общий поток : 4367 Кбит/сек
Название фильма : Fortitude 3x01 @ AlexFilm
Дата кодирования : UTC 2018-12-21 12:23:21
Программа кодирования : mkvmerge v7.9.0 ('Birds') 64bit
Библиотека кодирования : libebml v1.3.1 + libmatroska v1.4.2

Видео
Идентификатор : 1
Формат : AVC
Формат/Информация : Advanced Video Codec
Профиль формата : High@L4
Параметр CABAC формата : Да
Параметр ReFrames формата : 4 кадра
Идентификатор кодека : V_MPEG4/ISO/AVC
Продолжительность : 47 м. 50 с.
Битрейт : 3981 Кбит/сек
Ширина : 1280 пикселей
Высота : 640 пикселей
Соотношение сторон : 2,000
Режим частоты кадров : Постоянный
Частота кадров : 25,000 кадров/сек
Цветовое пространство : YUV
Субдискретизация насыщенности : 4:2:0
Битовая глубина : 8 бит
Тип развёртки : Прогрессивная
Бит/(Пиксели*Кадры) : 0.194
Размер потока : 1,33 Гбайт (91%)
Библиотека кодирования : x264 core 155 r2901 7d0ff22
Настройки программы : cabac=1 / ref=2 / deblock=1:0:0 / analyse=0x3:0x113 / me=hex / subme=6 / psy=1 / psy_rd=1.00:0.00 / mixed_ref=1 / me_range=16 / chroma_me=1 / trellis=1 / 8x8dct=1 / cqm=0 / deadzone=21,11 / fast_pskip=1 / chroma_qp_offset=-2 / threads=9 / lookahead_threads=1 / sliced_threads=0 / nr=0 / decimate=1 / interlaced=0 / bluray_compat=0 / constrained_intra=0 / bframes=3 / b_pyramid=2 / b_adapt=1 / b_bias=0 / direct=1 / weightb=1 / open_gop=0 / weightp=1 / keyint=250 / keyint_min=25 / scenecut=40 / intra_refresh=0 / rc_lookahead=30 / rc=crf / mbtree=1 / crf=15.0 / qcomp=0.60 / qpmin=0 / qpmax=69 / qpstep=4 / vbv_maxrate=25000 / vbv_bufsize=31250 / crf_max=0.0 / nal_hrd=none / filler=0 / ip_ratio=1.40 / aq=1:1.00
Default : Да
Forced : Нет
Цветовой диапазон : Limited
Основные цвета : BT.709
Характеристики трансфера : BT.709
Коэффициенты матрицы : BT.709

Аудио #1
Идентификатор : 2
Формат : AC-3
Формат/Информация : Audio Coding 3
Расширение режима : CM (complete main)
Параметр Endianness формата : Big
Идентификатор кодека : A_AC3
Продолжительность : 47 м. 50 с.
Вид битрейта : Постоянный
Битрейт : 192 Кбит/сек
Каналы : 2 канала
Расположение каналов : Front: L R
Частота : 48,0 КГц
Частота кадров : 31,250 кадров/сек (1536 spf)
Метод сжатия : С потерями
Размер потока : 65,7 Мбайт (4%)
Заголовок : DD2.0 AlexFilm
Язык : Russian
Default : Да
Forced : Нет

Аудио #2
Идентификатор : 3
Формат : AC-3
Формат/Информация : Audio Coding 3
Расширение режима : CM (complete main)
Параметр Endianness формата : Big
Идентификатор кодека : A_AC3
Продолжительность : 47 м. 50 с.
Вид битрейта : Постоянный
Битрейт : 192 Кбит/сек
Каналы : 2 канала
Расположение каналов : Front: L R
Частота : 48,0 КГц
Частота кадров : 31,250 кадров/сек (1536 spf)
Метод сжатия : С потерями
Размер потока : 65,7 Мбайт (4%)
Заголовок : DD2.0 Original
Язык : English
Default : Нет
Forced : Нет
Внимание! Раздача ведётся путём добавления новых серий; при каждом добавлении создаётся новый торрент. Чтобы начать докачку новой серии, пользователям необходимо сделать следующее:
(1) остановить скачивание,
(2) удалить старый торрент у себя из клиента (старые серии удалять не надо),
(3) скачать новый торрент и запустить его у себя в клиенте вместо старого, при этом указать клиенту путь в старую папку куда и должно происходить скачивание новых серий.
Ваш клиент при этом должен произвести хеширование (проверку) старой папки (если не производит сам - помогите ему сделать это), и будет докачивать только те серии которых у вас ещё нет. Старые серии при этом не удаляются, а продолжают раздаваться!
Eсли вы уже удалили старые серии, то предотвратить повторную закачку старых серий можно, отжав галочку в соответствующих местах при запуске нового торрента. По возможности, желательно не удалять старые серии как можно дольше чтобы релизёр не столько продолжал раздавать старые серии, а смог сконцентрироваться на новых.
pb.wtf



Скачать Фортитьюд через торрент https://i106.fastpic.ru/big/2018/1221/e2/238b3c97722f64cce253c10850e99fe2.jpg Скачать фильм Фортитьюд через торрент бесплантно в хорошем качестве Описание: Очередное убийство в сонном городке — на этот раз на краю Арктики. Детектив Мортон прибывает в полярный Фортитьюд, чтобы ... 10 10 2
Торрент: Зарегистрирован [2018-12-28 20:48] · скачан: 79 раз
Статус: √ проверено
Размер: 5.61 GB
Как cкачать? Как скачать Фортитьюд через торрент | qTorrent

% Раздел Тема Автор DL S | L
Зарубежные сериалы [ 2.18 GB ] Фортитьюд / Fortitude / Сезон 3 / Серии 1-4 [2018 HDTVRip] [MVO] killermax2013 Скачать
1 | 0


Последний раз редактировалось: killermax2013 (2018-12-28 20:48), всего редактировалось 1 раз

28-11-2019 20:33  

Отключить всю рекламу на сайте

22-12-2018 20:08 Фортитьюд Скачать торрент  

А я то расстроился , что сериал закрыли, продолжать не собирались. А тут новый сезон! :)pb.wtf



28-11-2019 21:31 Фортитьюд Скачать торрент  

pb.wtf



    Дорогой пользователь! Огромная просьба, поблагодарите релизера, оцените раздачу и оставьте свои комментарий, если Вы скачали Фортитьюд через торрент бесплатно! Внесите свою лепту в развитие PiratBit!
    Комментировать посты могут только пользователи прошедшие не сложную регистрацию
    Показать сообщения:    

    Фортитьюд через торрент
    Скачать бесплатно Фортитьюд
    Фортитьюд скачать торрент
    Фортитьюд смотреть онлайн
    Cкачать фильм Фортитьюд бесплатно
    Фортитьюд скачать торрент в хорошем качестве
    Фортитьюд смотреть онлайн бесплатно в хорошем качестве


    Вы не можете начинать темы
    Вы не можете отвечать на сообщения
    Вы не можете редактировать свои сообщения
    Вы не можете удалять свои сообщения
    Вы не можете голосовать в опросах
    Вы не можете прикреплять файлы к сообщениям
    Вы можете скачивать файлы