новый адрес
Ссылка на приватное зеркало всего за 1$. Внимание количество ограничено!!!

iTunes

1+1

iTunes

мы

WEB-DL

1

iTunes

Чернобыль

iTunes

Ральф против интернета

Лицензия

ПШазам

Лицензия

Оно 2

Лицензия

30
pack

Вам бонус

ВАЖНО

!!Акция!!

Alien_RageХит недели

RePack

Resident Evil 21

ИГРА 18+

pack

RePack

jed

!!Акция!!

Alien_Rage

RePack

fifa19

RePack

Assassins Creed: Odyssey

RePack

NEED FOR SPEED™ PAYBACK

3 сезон

9 сезон

Бесстыжие 9 сезон

Все сериалы

все сериалы на PB.wtf

RePack

FAR CRY 5
Ребята, катастрофически не хватает 1900р. для оплаты серверов за Октябрь (всвязи с блокировками трафик упал в 3 раза), 1-2р., выручайте.
  

Решение о ликвидации (Александр Аравин) [2018, военный, боевик, драма, HDTVRip] [Расширенная ТВ-версия] pb.wtf

Решение о ликвидации через торрент pb.wtf

Раздают: 1 [ 0 KB/s ]
Размер: 2.06 GB | Добавлен: 11 мес. назад | Торрент скачан:461 раз
Скачать  

22-12-2018 14:55 Решение о ликвидации Скачать торрент  

Решение о ликвидации
Год выпуска: 2018
Страна: Россия
Жанр: военный, боевик, драма
Продолжительность: 02:32:53
Перевод: Не требуется
Субтитры: русские (вшитые) на чеченскую речь

Режиссер: Александр Аравин



В ролях:

Игорь Петренко, Алексей Вертков, Аюб Цингиев, Алексей Шевченков, Дмитрий Парастаев, Иван Шахназаров, Дагун Омаев, Сослан Фидаров, Кирилл Краснов, Шамиль Алханов

Описание:

Особое задание спецгруппы ФСБ - ликвидация одержимого террориста Шамиля Базгаева. Охота продолжается уже долго, но жестокий лидер боевиков раз за разом ускользает. Однако, когда Базгаеву удается заполучить мощное оружие для осуществления своего самого страшного теракта, у оперативников больше нет права на ошибку. Для этих спецов преодоление себя, смертельный риск и подвиг - не что-то сверхъестественное, а каждодневный тяжелый труд. Но, кажется, даже для них эта операция - за пределами возможностей...

Качество: HDTVRip | Расширенная ТВ-версия
Формат: AVI

Видео: XviD, ~ 1723 Кбит/с, 720x400
Аудио: AC3, 2 ch, 192 Кбит/с
скриншот  скриншот  скриншот  скриншот  

General
Complete name : C:UsersuserDownloadsVideoReshenie.o.likvidacii.2018.HDTVRip. Files-x.avi
Format : AVI
Format/Info : Audio Video Interleave
Format profile : OpenDML
File size : 2.06 GiB
Duration : 2h 32mn
Overall bit rate : 1 928 Kbps
Writing application : VirtualDubMod 1.5.10.3 | www.virtualdub-fr.org || (build 2550/release)
Writing library : VirtualDubMod build 2550/release

Video
ID : 0
Format : MPEG-4 Visual
Format profile : Advanced Simple@L5
Format settings, BVOP : 1
Format settings, QPel : No
Format settings, GMC : No warppoints
Format settings, Matrix : Custom
Codec ID : XVID
Codec ID/Hint : XviD
Duration : 2h 32mn
Bit rate : 1 723 Kbps
Width : 720 pixels
Height : 400 pixels
Display aspect ratio : 16:9
Frame rate : 25.000 fps
Color space : YUV
Chroma subsampling : 4:2:0
Bit depth : 8 bits
Scan type : Progressive
Compression mode : Lossy
Bits/(Pixel*Frame) : 0.239
Stream size : 1.84 GiB (89%)
Writing library : XviD 73

Audio
ID : 1
Format : AC-3
Format/Info : Audio Coding 3
Mode extension : CM (complete main)
Codec ID : 2000
Duration : 2h 32mn
Bit rate mode : Constant
Bit rate : 192 Kbps
Channel(s) : 2 channels
Channel positions : Front: L R
Sampling rate : 48.0 KHz
Bit depth : 16 bits
Compression mode : Lossy
Stream size : 210 MiB (10%)
Alignment : Split accross interleaves
Interleave, duration : 40 ms (1.00 video frame)
Interleave, preload duration : 500 ms

pb.wtf



Скачать Решение о ликвидации через торрент http://i101.fastpic.ru/big/2018/0824/88/70c10bfccd082d0e37a2563f08691f88.jpeg Скачать фильм Решение о ликвидации через торрент бесплантно в хорошем качестве Описание: Особое задание спецгруппы ФСБ - ликвидация одержимого террориста Шамиля Базгаева. Охота продолжается уже долго, но жестокий лидер ... 8.4 10 15
Info! Золотая раздача, скачанное не засчитывается.
Торрент: Зарегистрирован [2018-12-22 14:55] · скачан: 461 раз
Статус: √ проверено
Размер: 2.06 GB
Как cкачать? Как скачать Решение о ликвидации через торрент | qTorrent

% Раздел Тема Автор DL S | L
Наши фильмы (HD, WEB-DL 720p, 1080p) [ 8.18 GB ] Решение о ликвидации [2018 военный HDTV 1080i] [Расширенная ТВ-версия] bober100 Скачать
3 | 0
Наши новые фильмы 2018-2019 [ 2.04 GB ] Решение о ликвидации [2018 военный HDTVRip-AVC] [Расширенная ТВ-версия] bober100 Скачать
2 | 0
Наши фильмы (Blu-ray, BD-Remux, HDDVD) [ 19.37 GB ] Решение о ликвидации [2018 военный BD Remux 1080p] [] bober100 Скачать
1 | 0
Наши новые фильмы 2018-2019 [ 1.46 GB ] Решение о ликвидации [2018 военный BDRip] [Русский] [] Twi7ter Скачать
3 | 0
Наши новые фильмы 2018-2019 [ 745 MB ] Решение о ликвидации [2018 военный HDRip] [] bober100 Скачать
1 | 0
Наши новые фильмы 2018-2019 [ 2.01 GB ] Решение о ликвидации [2018 военный BDRip-AVC] [] bober100 Скачать
2 | 0
Наши фильмы (HD, WEB-DL 720p, 1080p) [ 3.78 GB ] Решение о ликвидации [2018 военный BDRip 720p] [] bober100 Скачать
1 | 0


Последний раз редактировалось: bober100 (2018-12-30 20:37), всего редактировалось 1 раз

28-11-2019 20:33  

Отключить всю рекламу на сайте

23-12-2018 18:06 Решение о ликвидации Скачать торрент  

Сняли бы уже про Беслан или Норд-Ост ,а то сплошная фантастикаpb.wtf



    Дорогой пользователь! Огромная просьба, поблагодарите релизера, оцените раздачу и оставьте свои комментарий, если Вы скачали Решение о ликвидации через торрент бесплатно! Внесите свою лепту в развитие PiratBit!
    Комментировать посты могут только пользователи прошедшие не сложную регистрацию
    Показать сообщения:    

    Решение о ликвидации через торрент
    Скачать бесплатно Решение о ликвидации
    Решение о ликвидации скачать торрент
    Решение о ликвидации смотреть онлайн
    Cкачать фильм Решение о ликвидации бесплатно
    Решение о ликвидации скачать торрент в хорошем качестве
    Решение о ликвидации смотреть онлайн бесплатно в хорошем качестве


    Вы не можете начинать темы
    Вы не можете отвечать на сообщения
    Вы не можете редактировать свои сообщения
    Вы не можете удалять свои сообщения
    Вы не можете голосовать в опросах
    Вы не можете прикреплять файлы к сообщениям
    Вы можете скачивать файлы