новый адрес
Ссылка на приватное зеркало всего за 1$. Внимание количество ограничено!!!

iTunes

1+1

iTunes

мы

iTunes

1

iTunes

Чернобыль

iTunes

Ральф против интернета

Лицензия

ПШазам

Лицензия

Оно 2

Лицензия

30
pack

Вам бонус

ВАЖНО

!!Акция!!

Alien_RageХит недели

RePack

Resident Evil 21

ИГРА 18+

pack

RePack

jed

!!Акция!!

Alien_Rage

RePack

fifa19

RePack

Assassins Creed: Odyssey

RePack

NEED FOR SPEED™ PAYBACK

3 сезон

9 сезон

Бесстыжие 9 сезон

Все сериалы

все сериалы на PB.wtf

RePack

FAR CRY 5
Ребята, катастрофически не хватает 1900р. для оплаты серверов за Октябрь (всвязи с блокировками трафик упал в 3 раза), 1-2р., выручайте.
  

Лукас / Lukas (Жюльен Леклерк) [2018, боевик, BDRip-AVC] MVO [iTunes] pb.wtf

Лукас через торрент pb.wtf

Раздают: 3 [ 0 KB/s ]
Размер: 1.46 GB | Добавлен: 11 мес. назад | Торрент скачан:595 раз
Скачать  

22-12-2018 15:00 Лукас Скачать торрент  

Лукас / Lukas
Год выпуска: 2018
Страна: Франция
Жанр: боевик
Продолжительность: 01:34:35
Перевод: Профессиональный многоголосый | iTunes
Субтитры: отсутствуют

Режиссер: Жюльен Леклерк

rating

В ролях:

Жан-Клод Ван Дамм, Свева Альвити, Сами Буажила, Сэм Лаувейк, Каарис, Кевин Янссенс, Алиса Версет, Карлос Шрам, Димитри Тивайос, Лорен Д'Илайа

Описание:

На что ты готов ради дочери? Герою придется ответить на этот вопрос, столкнувшись лицом к лицу с полицией, мафией и Интерполом.

Качество: BDRip-AVC
Формат: MKV

Видео: 1024x428 (2.40:1), 24,000 fps, x264 ~1 827 kbps avg, 0.174 bit/pixel
Аудио: 48 kHz, AC3 Dolby Digital, 3/2 (L,C,R,l,r) + LFE ch, ~384.00 kbps avg | RUS (iTunes)
скриншот  скриншот  скриншот  скриншот  скриншот  

Общее
Уникальный идентификатор : 237970300238879137655482813985333159088 (0xB30769A764FFF3FEFB29A212E3DBA4B0)
Полное имя : F:\OlLanDGroup\Lukas.2018.BDRip(AVC).OlLanDGroup.mkv
Формат : Matroska
Версия формата : Version 4 / Version 2
Размер файла : 1,46 Гбайт
Продолжительность : 1 ч. 34 м.
Общий поток : 2213 Кбит/сек
Название фильма : Lukas.2018 #TorpedoUK#
Дата кодирования : UTC 2018-12-22 14:39:32
Программа кодирования : mkvmerge v29.0.0 ('Like It Or Not') 64-bit
Библиотека кодирования : libebml v1.3.6 + libmatroska v1.4.9

Видео
Идентификатор : 1
Формат : AVC
Формат/Информация : Advanced Video Codec
Профиль формата : High@L4.1
Параметр CABAC формата : Да
Параметр ReFrames формата : 10 кадров
Идентификатор кодека : V_MPEG4/ISO/AVC
Продолжительность : 1 ч. 34 м.
Битрейт : 1827 Кбит/сек
Ширина : 1024 пикселя
Высота : 428 пикселей
Соотношение сторон : 2,40:1
Режим частоты кадров : Постоянный
Частота кадров : 24,000 кадра/сек
Цветовое пространство : YUV
Субдискретизация насыщенности : 4:2:0
Битовая глубина : 8 бит
Тип развёртки : Прогрессивная
Бит/(Пиксели*Кадры) : 0.174
Размер потока : 1,21 Гбайт (83%)
Библиотека кодирования : x264 core 146 r2538 121396c
Настройки программы : cabac=1 / ref=10 / deblock=1:-3:-3 / analyse=0x3:0x113 / me=umh / subme=11 / psy=1 / psy_rd=0.99:0.04 / mixed_ref=1 / me_range=48 / chroma_me=1 / trellis=2 / 8x8dct=1 / cqm=0 / deadzone=21,11 / fast_pskip=1 / chroma_qp_offset=-3 / threads=6 / lookahead_threads=1 / sliced_threads=0 / nr=0 / decimate=1 / interlaced=0 / bluray_compat=0 / constrained_intra=0 / bframes=11 / b_pyramid=2 / b_adapt=2 / b_bias=0 / direct=3 / weightb=1 / open_gop=0 / weightp=2 / keyint=240 / keyint_min=24 / scenecut=40 / intra_refresh=0 / rc_lookahead=40 / rc=2pass / mbtree=0 / bitrate=1827 / ratetol=1.0 / qcomp=0.60 / qpmin=0 / qpmax=69 / qpstep=4 / cplxblur=20.0 / qblur=0.5 / vbv_maxrate=50000 / vbv_bufsize=62500 / nal_hrd=none / filler=0 / ip_ratio=1.40 / pb_ratio=1.30 / aq=1:1.00
Язык : English
Default : Да
Forced : Нет

Аудио
Идентификатор : 2
Формат : AC-3
Формат/Информация : Audio Coding 3
Расширение режима : CM (complete main)
Параметр Endianness формата : Big
Идентификатор кодека : A_AC3
Продолжительность : 1 ч. 34 м.
Вид битрейта : Постоянный
Битрейт : 384 Кбит/сек
Каналы : 6 каналов
Расположение каналов : Front: L C R, Side: L R, LFE
Частота : 48,0 КГц
Частота кадров : 31,250 кадров/сек (1536 spf)
Битовая глубина : 16 бит
Метод сжатия : С потерями
Размер потока : 260 Мбайт (17%)
Заголовок : MVO [iTunes]
Язык : Russian
Default : Да
Forced : Нет

Меню
00:00:00.000 : :Chapter 01
00:06:59.833 : :Chapter 02
00:12:25.958 : :Chapter 03
00:18:58.416 : :Chapter 04
00:25:26.583 : :Chapter 05
00:33:09.125 : :Chapter 06
00:40:01.000 : :Chapter 07
00:44:06.625 : :Chapter 08
00:51:24.458 : :Chapter 09
00:56:45.708 : :Chapter 10
01:03:19.958 : :Chapter 11
01:09:58.541 : :Chapter 12
01:15:33.916 : :Chapter 13
01:21:31.500 : :Chapter 14
01:29:18.291 : :Chapter 15

pb.wtf



Скачать Лукас через торрент http://img14.lostpic.net/2018/12/22/63c9101561549bf8665a4a16caf90ef9.jpg Скачать фильм Лукас через торрент бесплантно в хорошем качестве Описание: На что ты готов ради дочери? Герою придется ответить на этот вопрос, столкнувшись лицом к лицу с полицией, мафией и ... 8.9 10 14
Торрент: Зарегистрирован [2018-12-22 15:00] · скачан: 595 раз
Статус: √ проверено
Размер: 1.46 GB
Как cкачать? Как скачать Лукас через торрент | qTorrent

% Раздел Тема Автор DL S | L
Фильмы 2017 [DVDrip, WEB-DLRip, HDrip] (DUB, MVO) [ 1.45 GB ] Ведьмы / Hagazussa [2017 HDRip-AVC] Dub [Новамедиа] sokol_ok Скачать
13 | 0
Фильмы 2018 [DVDrip, WEB-DLRip, HDrip] (DUB, MVO) [ 1.42 GB ] Лукас / Lukas [2018 BDRip] MVO Twi7ter Скачать
2 | 0
Фильмы 2018 [DVDrip, WEB-DLRip, HDrip] (DUB, MVO) [ 1.41 GB ] Джим Пуговка и машинист Лукас / Jim Knopf und Lukas der Lokomotivführer [2018 BDRip] - Twi7ter Скачать
2 | 0
Фильмы [HD 720p, 1080p] (Хороший звук DUB, MVO) [ 3 GB ] Лукас / Lukas [2018 BDRip 1080p HEVC ()] Мичман37 Скачать
2 | 0
Фильмы 2018 [DVDrip, WEB-DLRip, HDrip] (DUB, MVO) [ 2.14 GB ] Джим Пуговка и машинист Лукас / Jim Knopf und Lukas der Lokomotivführer [2018 BDRip] - Twi7ter Скачать
1 | 0
Фильмы (Blu-ray, BD-Remux, HDDVD) [ 16.94 GB ] Лукас / Lukas [2018 BDRemux 1080p] [MVO] killermax2013 Скачать
3 | 0
Фильмы (Blu-ray, BD-Remux, HDDVD) [ 25.9 GB ] Джим Пуговка и машинист Лукас / Jim Knopf und Lukas der Lokomotivführer [2018 BDRip 1080p] bober100 Скачать
1 | 0
Отключить всю рекламу на сайте

23-12-2018 07:56 Лукас Скачать торрент  

хороший фильмpb.wtf



    Дорогой пользователь! Огромная просьба, поблагодарите релизера, оцените раздачу и оставьте свои комментарий, если Вы скачали Лукас через торрент бесплатно! Внесите свою лепту в развитие PiratBit!
    Комментировать посты могут только пользователи прошедшие не сложную регистрацию
    Показать сообщения:    

    Лукас через торрент
    Скачать бесплатно Лукас
    Лукас скачать торрент
    Лукас смотреть онлайн
    Cкачать фильм Лукас бесплатно
    Лукас скачать торрент в хорошем качестве
    Лукас смотреть онлайн бесплатно в хорошем качестве


    Вы не можете начинать темы
    Вы не можете отвечать на сообщения
    Вы не можете редактировать свои сообщения
    Вы не можете удалять свои сообщения
    Вы не можете голосовать в опросах
    Вы не можете прикреплять файлы к сообщениям
    Вы можете скачивать файлы