Ссылка на приватное зеркало всего за 1$. Внимание количество ограничено!!!

OK

1+1

iTunes

мы

OK

1

WEB-DLRip

Джокер

Пифагор

Ведьмак / The Witcher сериал

iTunes

ПШазам

ОК

Оно 2

iTunes

30
pack

Вам бонус

ВАЖНО

!!Акция!!

Alien_RageХит недели

RePack

Resident Evil 21

ИГРА 18+

pack

RePack

jed

RePack

fifa19

RePack

Assassins Creed: Odyssey

RePack

NEED FOR SPEED™ PAYBACK

4 сезон

9 сезон

Бесстыжие 9 сезон

Все сериалы

все сериалы на PB.wtf

RePack

FAR CRY 5
  

Воспоминания о Рождестве / Memories of Christmas (Тибор Такач) [2018, драма, HDTVRip 720p] MVO [AlphaProject] pb.wtf

Воспоминания о Рождестве через торрент pb.wtf

Размер: 2.95 GB | Добавлен: 1 год 1 мес. назад | Торрент скачан:9 раз
Скачать  

22-12-2018 15:15 Воспоминания о Рождестве Скачать торрент  

Воспоминания о Рождестве / Memories of ChristmasГод выпуска: 2018
Страна: США
Жанр: драма
Продолжительность: 01:26:03
Перевод: Любительский (многоголосый) | AlphaProject
Субтитры: отсутствуют

Режиссер: Тибор Такач

rating

В ролях:

Кристина Милиан, Марк Тейлор, Джейм М. Каллика, Гари Чок, Брэнди Александр, Адам Суэйн, Лиза Чандлер, Ронда Дент, Мат Ло

Описание:

Мама Ноэль обожала Рождество, о её невероятной способности устраивать праздник и украшать дом знал весь город. Когда она умирает, дом достаётся Ноэль, и теперь уже она должна продолжать давнюю традицию. Постепенно Ноэль понимает необходимость Рождественского настроения и осознаёт, что должна отстоять мероприятие, начало которому положила её мама.

Качество: HDTVRip 720p
Формат: MKV

Видео: h.264,4 518 kb/s, 1280x720
Аудио#1: Русский, (AC3, 2 ch, 384 Кбит/с)
скриншот  скриншот  скриншот  

Общее
Уникальный идентификатор : 182263665502743062859450660660531097763 (0x891EB48284AF25438254137DB77EF0A3)
Полное имя : D:\Memories.of.Christmas.2018.Pa.HDTV.72Op_KOSHARA.mkv
Формат : Matroska
Версия формата : Version 2
Размер файла : 2,95 Гбайт
Продолжительность : 1 ч. 26 м.
Режим общего битрейта : Переменный
Общий поток : 4904 Кбит/сек
Дата кодирования : UTC 2018-12-21 03:37:29
Программа кодирования : mkvmerge v8.3.0 ('Over the Horizon') 64bit
Библиотека кодирования : libebml v1.3.1 + libmatroska v1.4.2

Видео
Идентификатор : 1
Формат : AVC
Формат/Информация : Advanced Video Codec
Профиль формата : High@L4.1
Параметр CABAC формата : Да
Параметр RefFrames формата : 4 кадра
Идентификатор кодека : V_MPEG4/ISO/AVC
Продолжительность : 1 ч. 26 м.
Вид битрейта : Переменный
Битрейт : 4518 Кбит/сек
Максимальный битрейт : 5000 Кбит/сек
Ширина : 1280 пикселей
Высота : 720 пикселей
Соотношение сторон : 16:9
Режим частоты кадров : Постоянный
Частота кадров : 23,976 (24000/1001) кадра/сек
Стандарт вещания : Component
Цветовое пространство : YUV
Субдискретизация насыщенности : 4:2:0
Битовая глубина : 8 бит
Тип развёртки : Прогрессивная
Бит/(Пиксели*Кадры) : 0.200
Размер потока : 2,66 Гбайт (90%)
Default : Да
Forced : Нет
Цветовой диапазон : Limited
Основные цвета : BT.709
Характеристики трансфера : BT.709
Коэффициенты матрицы : BT.709

Аудио
Идентификатор : 2
Формат : AC-3
Формат/Информация : Audio Coding 3
Расширение режима : CM (complete main)
Параметр Endianness формата : Big
Идентификатор кодека : A_AC3
Продолжительность : 1 ч. 26 м.
Вид битрейта : Постоянный
Битрейт : 384 Кбит/сек
Каналы : 2 канала
Расположение каналов : Front: L R
Частота : 48,0 КГц
Частота кадров : 31,250 кадров/сек (1536 spf)
Метод сжатия : С потерями
Размер потока : 236 Мбайт (8%)
Default : Да
Forced : Нет

pb.wtf



Скачать Воспоминания о Рождестве через торрент https://d.radikal.ru/d18/1812/5b/6de8d1abb739.jpg Скачать фильм Воспоминания о Рождестве через торрент бесплантно в хорошем качестве Описание: Мама Ноэль обожала Рождество, о её невероятной способности устраивать праздник и украшать дом знал весь город. Когда она умирает, ... 10 10 2
Торрент: Зарегистрирован [2018-12-22 15:15] · скачан: 9 раз
Статус: T временная
Размер: 2.95 GB
Как cкачать? Как скачать Воспоминания о Рождестве через торрент | qTorrent

% Раздел Тема Автор DL S | L
T Фильмы (мультфильмы) cо спонсором показа (Новинки AVI/MKV) [ 1.37 GB ] Воспоминания о Рождестве / Memories of Christmas [2018 HDTVRip] MVO [AlphaProject] bober100 Скачать
1 | 0

28-11-2019 20:33  

Отключить всю рекламу на сайте

    Дорогой пользователь! Огромная просьба, поблагодарите релизера, оцените раздачу и оставьте свои комментарий, если Вы скачали Воспоминания о Рождестве через торрент бесплатно! Внесите свою лепту в развитие PiratBit!
    Комментировать посты могут только пользователи прошедшие не сложную регистрацию
    Показать сообщения:    

    Воспоминания о Рождестве через торрент
    Скачать бесплатно Воспоминания о Рождестве
    Воспоминания о Рождестве скачать торрент
    Воспоминания о Рождестве смотреть онлайн
    Cкачать фильм Воспоминания о Рождестве бесплатно
    Воспоминания о Рождестве скачать торрент в хорошем качестве
    Воспоминания о Рождестве смотреть онлайн бесплатно в хорошем качестве


    Вы не можете начинать темы
    Вы не можете отвечать на сообщения
    Вы не можете редактировать свои сообщения
    Вы не можете удалять свои сообщения
    Вы не можете голосовать в опросах
    Вы не можете прикреплять файлы к сообщениям
    Вы можете скачивать файлы