Ссылка на приватное зеркало нашего сайта всего за 1$. Внимание количество ограничено!!!

2 сезон

iTunes

1 сезон

1

iTunes

iTunes

iTunes

1 сезон

RePack

30

ИГРА 18+

pack

ВАЖНО

!!Акция!!

Alien_RageХит недели

RePack

MK11
pack

Забери бонус

RePack

jed

!!Акция!!

Alien_Rage

RePack

fifa19

RePack

Assassins Creed: Odyssey

RePack

NEED FOR SPEED™ PAYBACK

4 сезон

9 сезон

Бесстыжие 9 сезон

Все сериалы

все сериалы на PB.wtf

RePack

FAR CRY 5
  

Ноль / Серии: 1-2 из 2 (Руслан Паушу) [2018, криминал, SATRip] pb.wtf

Ноль через торрент pb.wtf

Размер: 1.25 GB | Добавлен: 1 год 10 мес. назад | Торрент скачан:288 раз
Скачать  

22-12-2018 15:26 Ноль Скачать торрент  

Ноль Год выпуска: 2018
Страна: Россия
Жанр: криминал
Продолжительность: ~ 00:48:00
Субтитры: отсутствуют

Режиссер: Руслан Паушу



В ролях:

Фёдор Лавров, Лукерья Ильяшенко, Игорь Хрипунов, Диана Енакаева, Алексей Гришин, Олег Каменщиков, Павел Попов

Описание:

По сюжету, отец-одиночка Валера (Фёдор Лавров) работает водителем троллейбуса номер "0". Однажды его ежедневный маршрут «Шоссе Энтузиастов – Леоновское кладбище» прерывается из-за внезапной стрельбы в салоне. Чудом уцелев в перестрелке, Валерий осматривает троллейбус и под одним из сидений обнаруживает рюкзак с долларовыми купюрами. Поддавшись секундному соблазну, герой забирает деньги себе. Так Валера становится заложником обстоятельств и ему больше никуда не сбежать – с одной стороны преступники, с другой – полиция. К тому же он оказывается втянут в аферу загадочной девушки по имени Лиля (Лукерья Ильяшенко). Куда заведут эти деньги героя?

Качество: SATRip
Формат: AVI

Видео: XviD, ~ 1650 Кбит/с, 720x304
Аудио: MP3, 2 ch, 192 Кбит/с
скриншот  скриншот  скриншот  скриншот  

Общее
Полное имя : D:\Nol.2017.XviD.SATRip.25Kuzmich\Nol.(01.seriya.iz.02).XviD.SATRip.25Kuzmich.avi
Формат : AVI
Формат/Информация : Audio Video Interleave
Размер файла : 642 Мбайт
Продолжительность : 48 м. 23 с.
Общий поток : 1856 Кбит/сек
Программа кодирования : VirtualDubMod 1.5.10.3 | www.virtualdub-fr.org || (build 2550/release)
Библиотека кодирования : VirtualDubMod build 2550/release

Видео
Идентификатор : 0
Формат : MPEG-4 Visual
Профиль формата : Advanced Simple@L5
Параметр BVOP формата : 2
Параметр QPel формата : Нет
Параметр GMC формата : Без точки перехода
Параметр матрицы формата : Default (MPEG)
Режим смешивания : Сжатый битовый поток
Идентификатор кодека : XVID
Идентификатор кодека/Подсказка : XviD
Продолжительность : 48 м. 23 с.
Битрейт : 1654 Кбит/сек
Ширина : 720 пикселей
Высота : 304 пикселя
Соотношение сторон : 2,35:1
Частота кадров : 25,000 кадров/сек
Цветовое пространство : YUV
Субдискретизация насыщенности : 4:2:0
Битовая глубина : 8 бит
Тип развёртки : Прогрессивная
Метод сжатия : С потерями
Бит/(Пиксели*Кадры) : 0.302
Размер потока : 573 Мбайт (89%)
Библиотека кодирования : XviD 1.2.1 (UTC 2008-12-04)

Аудио
Идентификатор : 1
Формат : MPEG Audio
Версия формата : Version 1
Профиль формата : Layer 3
Режим : Joint stereo
Идентификатор кодека : 55
Идентификатор кодека/Подсказка : MP3
Продолжительность : 48 м. 23 с.
Вид битрейта : Постоянный
Битрейт : 192 Кбит/сек
Каналы : 2 канала
Частота : 48,0 КГц
Метод сжатия : С потерями
Размер потока : 66,4 Мбайт (10%)
Выравнивание : Соединение по промежуткам
Продолжительность промежутка : 40 мс. (1,00 видеокадр)
Время предзагрузки промежутка : 504 мс.
Библиотека кодирования : LAME3.99r
Настройки программы : -m j -V 4 -q 2 -lowpass 18.6 -b 192

pb.wtf



Скачать Ноль через торрент http://img15.lostpic.net/2018/12/22/2e8c84771196f91ab002d441da845683.jpg Скачать фильм Ноль через торрент бесплантно в хорошем качестве Описание: По сюжету, отец-одиночка Валера (Фёдор Лавров) работает водителем троллейбуса номер "0". Однажды его ежедневный маршрут «Шоссе ... 10 10 13
Info! Золотая раздача, скачанное не засчитывается.
Торрент: Зарегистрирован [2018-12-22 15:26] · скачан: 288 раз
Статус: √ проверено
Размер: 1.25 GB
Как cкачать? Как скачать Ноль через торрент | qTorrent

% Раздел Тема Автор DL S | L
Зарубежные сериалы [ 12.66 GB ] Большая маленькая ложь / Big Little Lies / Сезон: 2 / Серии: 1-7 из 7 [2019 WEB-DL 720p] MVO [TVShows] bober100 Скачать
2 | 0
Зарубежные сериалы [ 13.5 GB ] Большая маленькая ложь / Big Little Lies / Сезон: 2 / Серии: 1-7 из 7 [2019 WEB-DL 720p] [MVO] killermax2013 Скачать
2 | 0
Зарубежные сериалы [ 24.29 GB ] Большая маленькая ложь / Big Little Lies / Сезон: 2 / Серии: 1-7 из 7 [2019 WEB-DL 1080p] MVO [TVShows] bober100 Скачать
2 | 0
Наши сериалы [ 4.18 GB ] Ноль / Серии: 1-2 из 2 [2018 WEB-DL 1080p] bober100 Скачать
1 | 0
Зарубежные сериалы [ 15.88 GB ] Люди / Humans / Сезон: 2 / Серии 1-8 из 8 [2016 WEB-DLRip 1080p] MVO LostFilm MicroCharmelle Скачать
1 | 0
Зарубежные сериалы [ 3.51 GB ] Люди / Humans / Сезон 2 / Серии 1-4 из 8 [2016 Швеция WEB-DLRip-AVC WEBRip-AVC] MVO [BaibaKo] GEKADOL Скачать
1 | 0
Зарубежные сериалы [ 2.97 GB ] Жертва / Prey / Сезон: 2 / Серии 1-3 из 3 [2015 HDTVRip 720р] MVO [Viruse Project] GEKADOL Скачать
1 | 0

28-11-2019 20:33  

Отключить всю рекламу на сайте

    Дорогой пользователь! Огромная просьба, поблагодарите релизера, оцените раздачу и оставьте свои комментарий, если Вы скачали Ноль через торрент бесплатно! Внесите свою лепту в развитие PiratBit!
    Комментировать посты могут только пользователи прошедшие не сложную регистрацию
    Показать сообщения:    

    Ноль через торрент
    Скачать бесплатно Ноль
    Ноль скачать торрент
    Ноль смотреть онлайн
    Cкачать фильм Ноль бесплатно
    Ноль скачать торрент в хорошем качестве
    Ноль смотреть онлайн бесплатно в хорошем качестве


    Вы не можете начинать темы
    Вы не можете отвечать на сообщения
    Вы не можете редактировать свои сообщения
    Вы не можете удалять свои сообщения
    Вы не можете голосовать в опросах
    Вы не можете прикреплять файлы к сообщениям
    Вы можете скачивать файлы