Ссылка на приватное зеркало нашего сайта всего за 1$. Внимание количество ограничено!!!

2 сезон

iTunes

1 сезон

1

2 сезон

2 сезон

iTunes

1 сезон

RePack

30

Новинка

ВАЖНО

ИГРА 18+

pack

RePack

MK11
pack

Забери бонус

RePack

jed

!!Акция!!

Alien_Rage

RePack

fifa19

RePack

Assassins Creed: Odyssey

RePack

NEED FOR SPEED™ PAYBACK

4 сезон

9 сезон

Бесстыжие 9 сезон

Все сериалы

все сериалы на PB.wtf

RePack

FAR CRY 5
  

Легкий как перышко / Light as a Feather / Сезон: 1 / Серии: 1-10 из 10 (Алексис О. Коричински, Джеффри В. Бёрд, Чад Лоу) [2018, триллер, WEB-DL 1080p] [MVO] (TVShows) pb.wtf

Легкий как перышко через торрент pb.wtf

Размер: 9.15 GB | Добавлен: 1 год 11 мес. назад | Торрент скачан:20 раз
Скачать  

22-12-2018 15:39 Легкий как перышко Скачать торрент  

Легкий как перышко | Light as a Feather
Год выпуска: 2018
Страна: США
Жанр: триллер
Продолжительность: 00:23:00

Перевод: Профессиональный (многоголосый закадровый) TVShows

Режиссёр: Алексис О. Коричински, Джеффри В. Бёрд, Чад Лоу

В ролях: Лиана Либерато, Оливия «Чачи» Гонзалес, Brent Rivera, Дориан Браун, Аджиона Алексус, Дилан Спрейберри, Бриэнн Тджу, Джордан Родригез, Пейтон Лист, Хейли Рэмм и др.
Описание: Компания девочек-подростков связывается с тёмными силами, когда начинает играть в мистическую игру «Легкий, как перышко — твердый, как дерево». Получая зловещие предсказания, они начинают сталкиваться со сверхъестественными последствиями игры, и вскоре одна за другой умирают именно так, как было предсказано.
rating

Качество: WEB-DL 1080p
Формат: MKV
Видео: AVC, 1920x1080 (16:9), 23.976 fps, ~5 000 kb/s
Аудио Rus: AC3, 48.0 KHz, 2 channels, 192 kbps | TVShows
Аудио Eng: AAC, 48.0 KHz, 2 channels, 64 kbps | Original
Субтитры: Eng
General
Unique ID : 17672443409497763648791511345758813319 (0xD4B96BB49A913B89C68602F4CA53C87)
Complete name : G:\1080р. TVShows\Light.as.a.Feather.S01.1080p.TVShows\Light.as.a.Feather.S01E01.1080p.TVShows.mkv
Format : Matroska
Format version : Version 4 / Version 2
File size : 875 MiB
Duration : 23 min 44 s
Overall bit rate : 5 150 kb/s
Encoded date : UTC 2018-10-22 13:12:39
Writing application : mkvmerge v24.0.0 ('Beyond The Pale') 64-bit
Writing library : libebml v1.3.6 + libmatroska v1.4.9

Video
ID : 1
Format : AVC
Format/Info : Advanced Video Codec
Format profile : High@L4
Format settings, CABAC : Yes
Format settings, ReFrames : 4 frames
Codec ID : V_MPEG4/ISO/AVC
Duration : 23 min 44 s
Bit rate : 4 892 kb/s
Width : 1 920 pixels
Height : 1 080 pixels
Display aspect ratio : 16:9
Frame rate mode : Constant
Frame rate : 23.976 (24000/1001) FPS
Color space : YUV
Chroma subsampling : 4:2:0
Bit depth : 8 bits
Scan type : Progressive
Bits/(Pixel*Frame) : 0.098
Stream size : 831 MiB (95%)
Default : Yes
Forced : No

Audio #1
ID : 2
Format : AC-3
Format/Info : Audio Coding 3
Mode extension : CM (complete main)
Format settings, Endianness : Big
Codec ID : A_AC3
Duration : 23 min 44 s
Bit rate mode : Constant
Bit rate : 192 kb/s
Channel(s) : 2 channels
Channel positions : Front: L R
Sampling rate : 48.0 kHz
Frame rate : 31.250 FPS (1536 spf)
Bit depth : 16 bits
Compression mode : Lossy
Stream size : 32.6 MiB (4%)
Title : TVShows
Language : Russian
Default : Yes
Forced : No

Audio #2
ID : 3
Format : AAC
Format/Info : Advanced Audio Codec
Format profile : HE-AAC / LC
Codec ID : A_AAC
Duration : 23 min 44 s
Bit rate : 64.0 kb/s
Channel(s) : 2 channels
Channel positions : Front: L R
Sampling rate : 48.0 kHz / 24.0 kHz
Frame rate : 23.438 FPS (1024 spf)
Compression mode : Lossy
Stream size : 10.9 MiB (1%)
Title : Original
Language : English
Default : No
Forced : No

Text
ID : 4
Format : UTF-8
Codec ID : S_TEXT/UTF8
Codec ID/Info : UTF-8 Plain Text
Duration : 23 min 33 s
Bit rate : 87 b/s
Count of elements : 557
Stream size : 15.0 KiB (0%)
Title : English
Language : English
Default : No
Forced : No
скриншот  скриншот  скриншот  
pb.wtf



Скачать Легкий как перышко через торрент http://i97.fastpic.ru/big/2018/1103/f1/d11150be75d0c5b1adac4865bfcb38f1.jpg Скачать фильм Легкий как перышко через торрент бесплантно в хорошем качестве Описание: Компания девочек-подростков связывается с тёмными силами, когда начинает играть в мистическую игру «Легкий, как перышко — ... 10 10 1
Торрент: Зарегистрирован [2018-12-22 15:39] · скачан: 20 раз
Статус: √ проверено
Размер: 9.15 GB
Как cкачать? Как скачать Легкий как перышко через торрент | qTorrent

% Раздел Тема Автор DL S | L
Зарубежные сериалы [ 20.64 GB ] Легкий как перышко / Light as a Feather / Сезон: 2 / Серии: 1-16 из 16 [2019 WEB-DL 1080p] MVO [TVShows] bober100 Скачать
1 | 0
Зарубежные сериалы [ 5.75 GB ] Лёгкий как пёрышко / Light as a Feather / Сезон: 1 / Серии: 1-10 из 10 [2018 WEBRip 720p] MVO [BaibaKo] bober100 Скачать
1 | 0
Зарубежные сериалы [ 3.6 GB ] Легкий как перышко / Light as a Feather / Сезон: 1 / Серии: 1-10 из 10 [2018 WEB-DLRip] [MVO] killermax2013 Скачать
1 | 0

28-11-2019 20:33  

Отключить всю рекламу на сайте

    Дорогой пользователь! Огромная просьба, поблагодарите релизера, оцените раздачу и оставьте свои комментарий, если Вы скачали Легкий как перышко через торрент бесплатно! Внесите свою лепту в развитие PiratBit!
    Комментировать посты могут только пользователи прошедшие не сложную регистрацию
    Показать сообщения:    

    Легкий как перышко через торрент
    Скачать бесплатно Легкий как перышко
    Легкий как перышко скачать торрент
    Легкий как перышко смотреть онлайн
    Cкачать фильм Легкий как перышко бесплатно
    Легкий как перышко скачать торрент в хорошем качестве
    Легкий как перышко смотреть онлайн бесплатно в хорошем качестве


    Вы не можете начинать темы
    Вы не можете отвечать на сообщения
    Вы не можете редактировать свои сообщения
    Вы не можете удалять свои сообщения
    Вы не можете голосовать в опросах
    Вы не можете прикреплять файлы к сообщениям
    Вы можете скачивать файлы