Ссылка на приватное зеркало нашего сайта всего за 1$. Внимание количество ограничено!!!

2 сезон

iTunes

1 сезон

1

2 сезон

2 сезон

iTunes

1 сезон

RePack

30

Ultimate

ВАЖНО

ИГРА 18+

pack

RePack

MK11
pack

Забери бонус

RePack

jed

!!Акция!!

Alien_Rage

RePack

fifa19

RePack

Assassins Creed: Odyssey

RePack

NEED FOR SPEED™ PAYBACK

4 сезон

9 сезон

Бесстыжие 9 сезон

Все сериалы

все сериалы на PB.wtf

RePack

FAR CRY 5
  

Последнее королевство / The Last Kingdom / Сезон: 3 / Серии: 1-10 из 10 (Бен Чанан, Энтони Бирн) [2018, исторический, боевик, драма, WEB-DL 720p] MVO [Jaskier] pb.wtf

Последнее королевство через торрент pb.wtf

Размер: 11.92 GB | Добавлен: 1 год 10 мес. назад | Торрент скачан:35 раз
Скачать  

22-12-2018 16:29 Последнее королевство Скачать торрент  

Последнее Королевство | The Last Kingdom • Год выпуска: 2018
• Страна: Великобритания
• Жанр: Исторический, боевик, драма
• Продолжительность: ~ 00:55:00
• Перевод: Профессиональный (многоголосый закадровый) | Jaskier
• Субтитры: отсутствуют

• Режиссёр: Бен Чанан, Энтони Бирн

• В ролях:

Александр Дреймон, Николас Роу, Эмили Кокс, Дэвид Доусон, Иэн Харт, Герард Кернс, Алек Ньюман и др.

• Описание:

Сюжет рассказывает о временах правления короля Уэссекса Альфреда Великого, сумевшего отвоевать английские земли у датских викингов — заморских захватчиков. Главным героем повествования выступает ещё в младенчестве похищенный данами Утред — потомок благородного саксонского рода. Воспитанный как викинг, в очень непростой момент жизненного выбора молодой воин должен будет решить для себя, чью сторону он примет в решающих сражениях за судьбу древней Британии.



Качество: WEB-DL 720p
Формат: MKV

Видео: X264, ~ 3000 kbps, 1280x720 (16:9), 23.976 fps
Аудио 1: AC3, 48,0 КГц, 6 ch, 384 kbps - Rus
Аудио 2: AC3, 48,0 КГц, 6 ch, 384 kbps - Eng


Реклама: Присутствует звуковая (два раза в начале и конце по 10 сек.)
Переведено и озвучено: студией Jaskier
Общее
Уникальный идентификатор                 : 202611297128426664927417844895139287731 (0x986D84342BF77741A4CDBBA09E18D2B3)
Полное имя                               : H:\JASKiER\The Last Kingdom. Season 3 (WEB-DL l 720p l Jaskier)\The.Last.Kingdom.S03E01.720p.WEB-DL.DD5.1.H.264-Jaskier.mkv
Формат                                   : Matroska
Версия формата                           : Version 2
Размер файла                             : 1,24 Гбайт
Продолжительность                        : 54 м. 58 с.
Режим общего битрейта                    : Переменный
Общий поток                              : 3238 Кбит/сек
Дата кодирования                         : UTC 2018-12-22 14:42:22
Программа кодирования                    : mkvmerge v7.8.0 ('River Man') 32bit built on Apr  3 2015 12:11:22
Библиотека кодирования                   : libebml v1.3.1 + libmatroska v1.4.2

Видео
Идентификатор                            : 1
Формат                                   : AVC
Формат/Информация                        : Advanced Video Codec
Профиль формата                          : Main@L3.1
Настройки формата                        : CABAC / 3 Ref Frames
Параметр CABAC формата                   : Да
Параметр RefFrames формата               : 3 кадра
Идентификатор кодека                     : V_MPEG4/ISO/AVC
Продолжительность                        : 54 м. 58 с.
Вид битрейта                             : Переменный
Битрейт                                  : 2490 Кбит/сек
Максимальный битрейт                     : 3735 Кбит/сек
Ширина                                   : 1280 пикселей
Высота                                   : 720 пикселей
Соотношение сторон                       : 16:9
Режим частоты кадров                     : Постоянный
Частота кадров                           : 25,000 кадров/сек
Цветовое пространство                    : YUV
Субдискретизация насыщенности            : 4:2:0
Битовая глубина                          : 8 бит
Тип развёртки                            : Прогрессивная
Бит/(Пиксели*Кадры)                      : 0.108
Размер потока                            : 946 Мбайт (74%)
Библиотека кодирования                   : x264 core 148 r2715 7e75228
Настройки программы                      : cabac=1 / ref=3 / deblock=1:0:0 / analyse=0x1:0x111 / me=umh / subme=10 / psy=1 / psy_rd=1.00:0.00 / mixed_ref=1 / me_range=24 / chroma_me=1 / trellis=2 / 8x8dct=0 / cqm=0 / deadzone=21,11 / fast_pskip=1 / chroma_qp_offset=-2 / threads=8 / lookahead_threads=1 / sliced_threads=0 / nr=0 / decimate=1 / interlaced=0 / bluray_compat=0 / stitchable=1 / constrained_intra=0 / bframes=2 / b_pyramid=0 / b_adapt=2 / b_bias=0 / direct=3 / weightb=1 / open_gop=0 / weightp=2 / keyint=50 / keyint_min=26 / scenecut=0 / intra_refresh=0 / rc_lookahead=50 / rc=2pass / mbtree=1 / bitrate=2490 / ratetol=1.0 / qcomp=0.50 / qpmin=6 / qpmax=51 / qpstep=4 / cplxblur=20.0 / qblur=0.5 / vbv_maxrate=3735 / vbv_bufsize=4980 / nal_hrd=vbr / filler=0 / ip_ratio=1.40 / aq=1:1.00
Язык                                     : English
Default                                  : Да
Forced                                   : Нет

Аудио #1
Идентификатор                            : 2
Формат                                   : AC-3
Формат/Информация                        : Audio Coding 3
Коммерческое название                    : Dolby Digital
Идентификатор кодека                     : A_AC3
Продолжительность                        : 54 м. 58 с.
Вид битрейта                             : Постоянный
Битрейт                                  : 384 Кбит/сек
Каналы                                   : 6 каналов
Channel layout                           : L R C LFE Ls Rs
Частота                                  : 48,0 КГц
Частота кадров                           : 31,250 кадров/сек (1536 SPF)
Битовая глубина                          : 16 бит
Метод сжатия                             : С потерями
Размер потока                            : 151 Мбайт (12%)
Заголовок                                : Jaskier
Язык                                     : Russian
ServiceKind/String                       : Complete Main
Default                                  : Да
Forced                                   : Нет

Аудио #2
Идентификатор                            : 3
Формат                                   : AC-3
Формат/Информация                        : Audio Coding 3
Коммерческое название                    : Dolby Digital
Идентификатор кодека                     : A_AC3
Продолжительность                        : 54 м. 58 с.
Вид битрейта                             : Постоянный
Битрейт                                  : 384 Кбит/сек
Каналы                                   : 6 каналов
Channel layout                           : L R C LFE Ls Rs
Частота                                  : 48,0 КГц
Частота кадров                           : 31,250 кадров/сек (1536 SPF)
Битовая глубина                          : 16 бит
Метод сжатия                             : С потерями
Размер потока                            : 151 Мбайт (12%)
Язык                                     : English
ServiceKind/String                       : Complete Main
Default                                  : Нет
Forced                                   : Нет
скриншот  скриншот  скриншот  
Когда раздача ведётся путём добавления новых серий, при каждом добавлении создётся новый торрент. Чтобы начать докачку новой серии, пользователям необходимо сделать следующее:
(1) остановить скачивание,
(2) удалить старый торрент у себя из клиента (старые серии удалять не надо),
(3) скачать новый торрент и запустить его у себя в клиенте вместо старого, при этом указать клиенту путь в старую папку, куда и должно происходить скачивание новых серий.
Ваш клиент при этом должен произвести хеширование (проверку) старой папки (если не производит сам - помогите ему сделать это), и будет докачивать только те серии, которых у вас ещё нет. Старые серии при этом не удаляются, а продолжают раздаваться!
Eсли вы уже удалили старые серии, то предотвратить повторную закачку старых серий можно, отжав галочку в соответсвующих местах при запуске нового торрента. По возможности, желательно не удалять старые серии как можно дольше, чтобы релизёр не столько продолжал раздавать старые серии, а смог сконцентрироваться на новых.
pb.wtf



Скачать Последнее королевство через торрент http://img14.lostpic.net/2018/12/22/257aba1aeeb6259ab031e62c94ca5fbd.png Скачать фильм Последнее королевство через торрент бесплантно в хорошем качестве Описание: Сюжет рассказывает о временах правления короля Уэссекса Альфреда Великого, сумевшего отвоевать английские земли у датских ... 10 10 4
Торрент: Зарегистрирован [2019-01-28 16:16] · скачан: 35 раз
Статус: √ проверено
Размер: 11.92 GB
Как cкачать? Как скачать Последнее королевство через торрент | qTorrent

% Раздел Тема Автор DL S | L
Зарубежные сериалы [ 6.36 GB ] Последнее королевство / The Last Kingdom / Сезон: 3 / Серии: 1-10 из 10 [2018 исторический WEBRip] DUB [Netflix] bober100 Скачать
2 | 0
Зарубежные сериалы [ 6.36 GB ] Последнее королевство / The Last Kingdom / Сезон: 3 / Серии: 1-10 из 10 [2018 исторический WEB-DLRip] MVO [Jaskier] bober100 Скачать
1 | 0
Зарубежные сериалы [ 21.04 GB ] Последнее королевство / The Last Kingdom / Сезон: 3 / Серии: 1-10 из 10 [2018 исторический WEBRip 1080p] DUB [Netflix] bober100 Скачать
1 | 0
Зарубежные сериалы [ 11.92 GB ] Последнее королевство / The Last Kingdom / Сезон: 3 / Серии: 1-10 из 10 [2018 исторический WEBRip 720p] DUB [Netflix] bober100 Скачать
1 | 0

28-11-2019 20:33  

Отключить всю рекламу на сайте

    Дорогой пользователь! Огромная просьба, поблагодарите релизера, оцените раздачу и оставьте свои комментарий, если Вы скачали Последнее королевство через торрент бесплатно! Внесите свою лепту в развитие PiratBit!
    Комментировать посты могут только пользователи прошедшие не сложную регистрацию
    Показать сообщения:    

    Последнее королевство через торрент
    Скачать бесплатно Последнее королевство
    Последнее королевство скачать торрент
    Последнее королевство смотреть онлайн
    Cкачать фильм Последнее королевство бесплатно
    Последнее королевство скачать торрент в хорошем качестве
    Последнее королевство смотреть онлайн бесплатно в хорошем качестве


    Вы не можете начинать темы
    Вы не можете отвечать на сообщения
    Вы не можете редактировать свои сообщения
    Вы не можете удалять свои сообщения
    Вы не можете голосовать в опросах
    Вы не можете прикреплять файлы к сообщениям
    Вы можете скачивать файлы